Торренты   
 
 

 

Тачки II (Джон Лассетер, Брэд Льюис) [2011 г., HDRip 1080p, Crop, Anamorph OverUnder]

Рейтинг 3D:
23 голосов
8.4
Рейтинг фильма:
21 голосов
8.4
 
Вы должны быть авторизированы,
чтобы ставить оценки


Год выпуска: 2011
Страна: Cars II
Жанр: Мультфильм, Комедия, Приключения, Семейный
Продолжительность: 01:46:59
Перевод: Профессиональный (полное дублирование)
Режиссер: Джон Лассетер, Брэд Льюис
Описание: Молния МакКуин и его друг Мэтр отправляются в международное путешествие — когда МакКуин получает шанс участвовать в соревнованиях для самых быстрых машин в мире, Мировом Гран-При. Этапы этих престижных гонок заведут друзей в Токио, на набережные Парижа, на побережье Италии, и на улицы туманного Лондона.
В ролях: Молния МакКуинн - Дмитрий Харатьян / Owen Wilson, Мэтр - Сергей Кузнецов / Larry "The Cable Guy", Флинн МакМиссайл - Леонид Каневский / Michael Caine, Холли Шифтвелл - Жанна Фриске / Emily Mortimer, Сэр Майлс Экслрод - Леонид Ярмольник / Eddie Izzard, Франческо Бернулли - Сергей Дьячков / John Turturro, Брент Мустангбургер - Александр Балакирев / Brent Musburger, Грем - Сергей Куприянов / Joe Mantegna, Профессор Ц - Юрий Герцман / Thomas Kretschmann, Эйсер - Алексей Макрецкий / Peter Jacobson, Салли - Алика Смехова / Bonnie Hunt, Дэвид Хоббскап - Михаил Захаров / David Hobbs, Королева - Татьяна Гордеева / Vanessa Redgrave, Рэймон - Андрей Машков / Cheech Marin, Льюис Хэмилтон - Александр Лушин / Lewis Hamilton, Фернандо Алонсо - Fernando Alonso, Виталий Петров - Виталий Петров, Себастьян Шнелль - Sebastian Vettel, Жак Вильнёв - Jacques Villeneuve
Внимание: Справа и слева у видеоряда обрезано по 240р, что дает возможность просмотра на полный экран (без черных полос) на телевизорах с соотношением сторон 16:9 без изменения пропорций.
Более подробная информация
Формат 3D: OverUnder
Видео: AVC, High@L4.0, 1920x1080, 23.976 fps, 8920 Кбит/сек
Аудио: Rus, AC-3, 6 каналов, 448 Кбит/сек, 48,0 КГц
Аудио: Ukr, AC-3, 2 канала, 192 Кбит/сек, 48,0 КГц
Аудио: Eng, AC-3, 6 каналов, 640 Кбит/сек, 48,0 КГц

Скриншоты




MediaInfo

Общее
Уникальный идентификатор : 239331897863064099213629572856581305019 (0xB40DA5998B58044BBA96488F62D5B2BB)
Полное имя : E:\STEREO CROP\CARS II_(CROP)_Rip by Dag13.mkv
Формат : Matroska
Версия формата : Version 2
Размер файла : 7,78 Гбайт
Продолжительность : 1 ч. 47 м.
Общий поток : 10,4 Мбит/сек
Дата кодирования : UTC 2012-10-14 13:50:05
Программа кодирования : mkvmerge v3.4.0 ('Rapunzel') сборка от May 15 2010 09:38:20
Библиотека кодирования : libebml v0.8.0 + libmatroska v0.9.0
Видео
Идентификатор : 1
Формат : AVC
Формат/Информация : Advanced Video Codec
Профиль формата : High@L4.0
Параметр CABAC формата : Да
Параметр ReFrames формата : 4 кадра
Идентификатор кодека : V_MPEG4/ISO/AVC
Продолжительность : 1 ч. 47 м.
Битрейт : 8920 Кбит/сек
Ширина : 1920 пикселей
Высота : 1080 пикселей
Соотношение сторон : 16:9
Режим частоты кадров : Постоянный
Частота кадров : 23,976 кадра/сек
Цветовое пространство : YUV
Субдискретизация насыщенности : 4:2:0
Битовая глубина : 8 бит
Тип развёртки : Прогрессивная
Бит/(Пиксели*Кадры) : 0.179
Размер потока : 6,67 Гбайт (86%)
Библиотека кодирования : x264 core 120 r2145 748fe16
Настройки программы : cabac=1 / ref=4 / deblock=1:-1:-2 / analyse=0x3:0x113 / me=umh / subme=9 / psy=1 / psy_rd=1.00:0.00 / mixed_ref=1 / me_range=16 / chroma_me=1 / trellis=1 / 8x8dct=1 / cqm=0 / deadzone=21,11 / fast_pskip=1 / chroma_qp_offset=-2 / threads=9 / sliced_threads=0 / nr=0 / decimate=1 / interlaced=0 / bluray_compat=0 / constrained_intra=0 / bframes=6 / b_pyramid=0 / b_adapt=2 / b_bias=0 / direct=3 / weightb=1 / open_gop=0 / weightp=2 / keyint=250 / keyint_min=23 / scenecut=40 / intra_refresh=0 / rc_lookahead=60 / rc=crf / mbtree=1 / crf=17.0 / qcomp=0.60 / qpmin=0 / qpmax=69 / qpstep=4 / ip_ratio=1.40 / aq=1:1.00
Язык : English
Default : Нет
Forced : Нет
Аудио #1
Идентификатор : 2
Формат : AC-3
Формат/Информация : Audio Coding 3
Расширение режима : CM (complete main)
Параметр Endianness формата : Big
Идентификатор кодека : A_AC3
Продолжительность : 1 ч. 47 м.
Вид битрейта : Постоянный
Битрейт : 448 Кбит/сек
Каналы : 6 каналов
Расположение каналов : Front: L C R, Side: L R, LFE
Частота : 48,0 КГц
Битовая глубина : 16 бит
Метод сжатия : С потерями
Размер потока : 343 Мбайт (4%)
Язык : Russian
Default : Да
Forced : Нет
Аудио #2
Идентификатор : 3
Формат : AC-3
Формат/Информация : Audio Coding 3
Расширение режима : CM (complete main)
Параметр Endianness формата : Big
Идентификатор кодека : A_AC3
Продолжительность : 1 ч. 47 м.
Вид битрейта : Постоянный
Битрейт : 192 Кбит/сек
Каналы : 2 канала
Расположение каналов : Front: L R
Частота : 48,0 КГц
Битовая глубина : 16 бит
Метод сжатия : С потерями
Размер потока : 147 Мбайт (2%)
Язык : Ukrainian
Default : Нет
Forced : Нет
Аудио #3
Идентификатор : 4
Формат : AC-3
Формат/Информация : Audio Coding 3
Расширение режима : CM (complete main)
Параметр Endianness формата : Big
Идентификатор кодека : A_AC3
Продолжительность : 1 ч. 47 м.
Вид битрейта : Постоянный
Битрейт : 640 Кбит/сек
Каналы : 6 каналов
Расположение каналов : Front: L C R, Side: L R, LFE
Частота : 48,0 КГц
Битовая глубина : 16 бит
Метод сжатия : С потерями
Размер потока : 490 Мбайт (6%)
Язык : English
Default : Нет
Forced : Нет
Благодарности релизеру (57)

Торрент:

Статус:

Размер:

Зарегистрирован   [ 2012-10-14 19:08 ]

проверено

7.78 GB