Торренты   
 
 

 

Президент Линкольн: Охотник на вампиров 3D / Abraham Lincoln: Vampire Hunter 3D (Тимур Бекмамбетов) [2012, BDrip, half1080p, Anamorph SideBySide]

Рейтинг 3D:
153 голосов
7.4
Рейтинг фильма:
154 голосов
6.8
 
Вы должны быть авторизированы,
чтобы ставить оценки


Президент Линкольн: Охотник на вампиров 3D / Abraham Lincoln: Vampire Hunter 3D
Рип гарантированно будет воспроизводиться телевизорами с заявленной поддержкой звука DTS и профиля видео 5.1, например Samsung 40C7000, Samsung 46D7000
Год выпуска: 2012
Страна: США, Abraham Productions, Базелевс Продакшн, Tim Burton Productions
Жанр: Ужасы, фэнтези, триллер
Продолжительность: 01:45:00
Перевод: Профессиональный (полное дублирование)
Режиссер: Тимур Бекмамбетов
В ролях: Бенджамин Уокер, Доминик Купер, Энтони Маки, Мэри Элизабет Уинстэд, Руфус Сьюэлл, Мартон Чокаш, Джимми Симпсон, Джозеф Моул, Робин МакЛиви, Эрин Уоссон, Джон Ротмен, Камерон М. Браун, Фрэнк Бреннан, Люкс Хэйни-Джардин, Кертис Харрис мл., Алекс Ломбард, Рэвин Стинсон, Жаклин Флеминг, Джон Нейслер, Аарон Тони, Миде Паттон, Тери Уайбл, Лоуренс Тернер, Джэйк Ла Ботц, Дэйн Родс, Эрл Мэддокс, Джон МакКоннелл, Бернард Хок, Ричи Монтгомери, Скотт Майкл Джеффресон, Пьер Пишон, Майя М. Маршалл, Алекс Булат, Джиллиан Басерсон, Кейси Бандик, Челси Брюленд, Эдвард Р. Кокс
Описание: Сюжет фильма раскрывает тайную жизнь Величайшего Президента Америки Авраама Линкольна — любящего мужа и отца днем и беспощадного убийцу вампиров ночью. Армия кровопийц, которым он бросил вызов, растет с каждым днем. Сможет ли президент великой страны противостоять полчищам вампиров и спасти свою семью и народ от неминуемой гибели?
Формат 3D: Anamorph SideBySide
Порядок ракурсов: Параллельная пара
Видео: MPEG-4 AVC, 12.0 Мбит/с, 1920x1080, 23.976 кадра/с
Доп. информация: Проверено на ТВ Samsung 40C7000 и Samsung 46D7000.

MediaInfo

General
Unique ID : 206555376263279457633727867336691968235 (0x9B651E518E9C9D46AB21C318A00668EB)
Complete name : Abraham Lincoln. Vampire Hunter 3D [Президент Линкольн. Охотник на вампиров 3D] (2012) DUB hSbS 1080p.mkv
Format : Matroska
Format version : Version 2
File size : 13.7 GiB
Duration : 1h 45mn
Overall bit rate mode : Variable
Overall bit rate : 18.7 Mbps
Encoded date : UTC 2012-10-15 11:57:59
Writing application : mkvmerge v5.8.0 ('No Sleep / Pillow') built on Sep 2 2012 15:37:04
Writing library : libebml v1.2.3 + libmatroska v1.3.0
Video
ID : 1
Format : AVC
Format/Info : Advanced Video Codec
Format profile : High@L5.1
Format settings, CABAC : Yes
Format settings, ReFrames : 5 frames
Muxing mode : Header stripping
Codec ID : V_MPEG4/ISO/AVC
Duration : 1h 45mn
Bit rate : 15.5 Mbps
Width : 1 920 pixels
Height : 1 080 pixels
Display aspect ratio : 16:9
Frame rate : 23.976 fps
Color space : YUV
Chroma subsampling : 4:2:0
Bit depth : 8 bits
Scan type : Progressive
Bits/(Pixel*Frame) : 0.312
Stream size : 11.4 GiB (83%)
Writing library : x264 core 128 r2216 198a7ea
Encoding settings : cabac=1 / ref=5 / deblock=1:-3:-3 / analyse=0x3:0x113 / me=umh / subme=9 / psy=1 / psy_rd=1.00:0.00 / mixed_ref=1 / me_range=32 / chroma_me=1 / trellis=2 / 8x8dct=1 / cqm=0 / deadzone=21,11 / fast_pskip=1 / chroma_qp_offset=-2 / threads=8 / lookahead_threads=1 / sliced_threads=0 / nr=0 / decimate=1 / interlaced=0 / bluray_compat=0 / constrained_intra=0 / bframes=6 / b_pyramid=2 / b_adapt=1 / b_bias=0 / direct=1 / weightb=1 / open_gop=0 / weightp=2 / keyint=240 / keyint_min=23 / scenecut=40 / intra_refresh=0 / rc_lookahead=40 / rc=crf / mbtree=1 / crf=17.0 / qcomp=0.60 / qpmin=0 / qpmax=69 / qpstep=4 / ip_ratio=1.40 / aq=1:1.00
Default : Yes
Forced : No
Audio #1
ID : 2
Format : DTS
Format/Info : Digital Theater Systems
Muxing mode : Header stripping
Codec ID : A_DTS
Duration : 1h 45mn
Bit rate mode : Constant
Bit rate : 755 Kbps
Channel(s) : 6 channels
Channel positions : Front: L C R, Side: L R, LFE
Sampling rate : 48.0 KHz
Bit depth : 24 bits
Compression mode : Lossy
Stream size : 567 MiB (4%)
Title : Russian DUB
Language : Russian
Default : Yes
Forced : Yes
Audio #2
ID : 3
Format : DTS
Format/Info : Digital Theater Systems
Format profile : MA / Core
Muxing mode : Header stripping
Codec ID : A_DTS
Duration : 1h 45mn
Bit rate mode : Variable
Bit rate : 1 597 Kbps / 1 510 Kbps
Channel(s) : 8 channels / 6 channels
Channel positions : Front: L C R, Side: L R, Back: L R, LFE / Front: L C R, Side: L R, LFE
Sampling rate : 48.0 KHz
Bit depth : 24 bits
Compression mode : Lossless / Lossy
Title : English
Language : English
Default : No
Forced : No
Audio #3
ID : 4
Format : AC-3
Format/Info : Audio Coding 3
Mode extension : CM (complete main)
Muxing mode : Header stripping
Codec ID : A_AC3
Duration : 1h 45mn
Bit rate mode : Constant
Bit rate : 448 Kbps
Channel(s) : 6 channels
Channel positions : Front: L C R, Side: L R, LFE
Sampling rate : 48.0 KHz
Bit depth : 16 bits
Compression mode : Lossy
Stream size : 336 MiB (2%)
Title : Ukrainian
Language : Ukrainian
Default : No
Forced : No
Menu
00:00:00.000 : en:00:00:00.000
00:03:48.478 : en:00:03:48.478
00:06:52.579 : en:00:06:52.579
00:11:06.457 : en:00:11:06.457
00:15:10.535 : en:00:15:10.535
00:20:07.790 : en:00:20:07.790
00:26:46.355 : en:00:26:46.355
00:29:22.135 : en:00:29:22.135
00:34:13.009 : en:00:34:13.009
00:39:04.884 : en:00:39:04.884
00:42:42.810 : en:00:42:42.810
00:47:25.468 : en:00:47:25.468
00:52:50.918 : en:00:52:50.918
01:00:39.302 : en:01:00:39.302
01:05:16.621 : en:01:05:16.621
01:10:33.604 : en:01:10:33.604
01:13:21.939 : en:01:13:21.939
01:16:41.555 : en:01:16:41.555
01:18:46.972 : en:01:18:46.972
01:22:41.373 : en:01:22:41.373
01:25:28.123 : en:01:25:28.123
01:29:00.835 : en:01:29:00.835
01:32:23.496 : en:01:32:23.496
01:37:55.119 : en:01:37:55.119

Скриншоты


Анимированые скриншоты ( для оценки 3D)


Остальные раздачи этого фильма (5)
Благодарности релизеру (40)

Торрент:

Статус:

Размер:

Зарегистрирован   [ 2012-10-15 16:54 ]

проверено

13.69 GB

 
 Мнение о фильме (47)

1, 2, 3  След.






смотрели всей семьей,очень понравилось
 

Посмотрел,не ожидал что понравится.Название смущало. =) Мне всё таки кажется,что это фильм не совсем о вампирах...
 

Фильм очень хорош прям получился))))
 

Фильм очень понравился 3 очень качественное советую всем посмотреть!
 

Даааа!!!!!Замахнулся Бекмамбетов на американскую историю!Но фильм получился зрелищным,спец эффекты на высоте.3D качаственное!Смотрите не пожалеете. Dag 13 особое спасибо!
 

Фильм супер,Бекмамбетов молодец!!!
 
Алексей Буцков Профиль 31-Окт-2012 15:57

Фильм очень понравился,шедевр,очень классный!
Спасибо!
 

и мне тоже фильм понравился обемная картинка супер но у всех нет вылетов или только у меня ? смотрю на проекторе
 

понравилось. действительно, молодец Декмамбетов!
 

Стоит посмотреть! Фильм очень понравился - очень динамичный!
 

Конвертация становится всё лучше и это радует - возможно скоро увидим классику (типа Лоуренса Аравийского, Блэдраннера) в объёме...
 

В ближайшее время обещают Топган из старого...
 

фильм без сожаления, 3D норма. 4+ спасибо!!
 

Хороший фильм. Чувствуется рука Бикмамбетова
 

через 15 минут просмотра вылетает почему непонятно
 

Не показывает совсем на Samsung 40es6307,почему? заранее спасибо.
 

Подскажите, а на Samsung 55es8007U просмотреть возможно будет?Спасибо! Все просмотрелось отлично, достойный фильм!
 

Фильм ерунда полная! 3D 5+
 

классный фильм, сначала подумали что муть, но потом затянул-таки! Спасибо!
 
девочка на облаке Профиль 05-Фев-2013 18:09

Фильм супер! 3D отличное! Смотрел в очках 3D Vision на ПК
 

Страница 1 из 3

1, 2, 3  След.