Торренты   
 
 

 

Властелин танца / Lord of the Dance in 3D [2011 г., Anamorph OverUnder]

Рейтинг 3D:
4 голосов
7.5
Рейтинг фильма:
3 голосов
9.0
 
Вы должны быть авторизированы,
чтобы ставить оценки


Властелин танца / Lord of the Dance in 3D
Год выпуска: 2011
Страна: Lord of the Dance in 3D
Жанр: Мюзикл
Продолжительность: 01:31:43
Перевод: Профессиональный (полное дублирование), профессиональный многоголосый
Описание: «Танцор за миллиард долларов», как называют Майкла Флэтли, возвращается в фильме-шоу «Властелин танца». Легендарный исполнитель ирландских танцев и создатель грандиозного шоу, покорившего весь мир, впервые с 1998 года предстает в нём в главной роли. Легенда в стиле фэнтези, основанная на ирландском фольклоре и классической истории борьбы между Добром и Злом, перенесет вас в древний мир, где правит Властелин танца. Безупречное исполнение, завораживающая музыка и самые современные световые и пиротехнические спецэффекты — во всём великолепии!
Формат 3D: Anamorph OverUnder (ФабРип)
Видео: MPEG-4 AVC, 13.2 Мбит/с, 1920x1080, 23.976 кадр/с
Аудио: Русский (AAC, 6 ch, 320 Кбит/с), (AC3, 6 ch, 640 Кбит/c), (DTS, 6 ch, 1510 Кбит/c)
AAC, 6 ch, 320 Кбит/с - дубляж
AC3, 6 ch, 640 Кбит/c, DTS, 6 ch, 1510 Кбит/c - профессиональный многолосый - выставлен по умолчанию

Скриншоты



Анимированые скриншоты, открываются по клику ( для оценки 3Д )

Инфо

General
Unique ID : 212329579110855591131800696501870220679 (0x9FBD307FB8AC13C0A28BA8AEA96B5587)
Complete name : M:\Кино3Д\Властелин.Танца.3Д.2011.x264.BDRip.1080p.3DRip.by.Kinozal.mkv
Format : Matroska
Format version : Version 2
File size : 10.7 GiB
Duration : 1h 35mn
Overall bit rate : 16.1 Mbps
Movie name : 3DRip-y-Kinozal.TV
Encoded date : UTC 2012-10-16 10:37:58
Writing application : mkvmerge v3.4.0 ('Rapunzel') сборка от May 15 2010 09:38:20
Writing library : libebml v0.8.0 + libmatroska v0.9.0
Video
ID : 1
Format : AVC
Format/Info : Advanced Video Codec
Format profile : High@L4.1
Format settings, CABAC : Yes
Format settings, ReFrames : 4 frames
Codec ID : V_MPEG4/ISO/AVC
Duration : 1h 35mn
Width : 1 920 pixels
Height : 1 080 pixels
Display aspect ratio : 16:9
Frame rate : 23.976 fps
Color space : YUV
Chroma subsampling : 4:2:0
Bit depth : 8 bits
Scan type : Progressive
Title : 3DRip-y-Kinozal.TV
Writing library : x264 core
Default : Yes
Forced : No
Color primaries : BT.709-5, BT.1361, IEC 61966-2-4, SMPTE RP177
Transfer characteristics : BT.709-5, BT.1361
Matrix coefficients : BT.709-5, BT.1361, IEC 61966-2-4 709, SMPTE RP177
Audio #1
ID : 2
Format : AC-3
Format/Info : Audio Coding 3
Mode extension : CM (complete main)
Format settings, Endianness : Big
Codec ID : A_AC3
Duration : 1h 35mn
Bit rate mode : Constant
Bit rate : 640 Kbps
Channel(s) : 6 channels
Channel positions : Front: L C R, Side: L R, LFE
Sampling rate : 48.0 KHz
Bit depth : 16 bits
Compression mode : Lossy
Stream size : 437 MiB (4%)
Title : 3DRip-y-Kinozal.TV
Language : Russian
Default : Yes
Forced : No
Audio #2
ID : 3
Format : DTS
Format/Info : Digital Theater Systems
Codec ID : A_DTS
Duration : 1h 35mn
Bit rate mode : Constant
Bit rate : 1 510 Kbps
Channel(s) : 6 channels
Channel positions : Front: L C R, Side: L R, LFE
Sampling rate : 48.0 KHz
Bit depth : 24 bits
Compression mode : Lossy
Stream size : 1.01 GiB (9%)
Title : 3DRip-y-Kinozal.TV
Language : Russian
Default : No
Forced : No
Audio #3
ID : 4
Format : AAC
Format/Info : Advanced Audio Codec
Format profile : LC
Codec ID : A_AAC
Duration : 1h 35mn
Channel(s) : 6 channels
Channel positions : Front: L C R, Side: L R, LFE
Sampling rate : 48.0 KHz
Compression mode : Lossy
Title : 3DRip-y-Kinozal.TV
Language : Russian
Default : No
Forced : No
Menu
00:00:00.000 : en:(01)00:00:00:000
00:08:11.782 : en:(02)00:08:11:782
00:15:48.614 : en:(03)00:15:48:614
00:23:34.454 : en:(04)00:23:34:454
00:32:33.785 : en:(05)00:32:33:785
00:41:24.231 : en:(06)00:41:24:231
00:49:08.695 : en:(07)00:49:08:695
00:57:08.258 : en:(08)00:57:08:258
01:05:32.928 : en:(09)01:05:32:928
01:14:13.323 : en:(10)01:14:13:323
01:22:32.113 : en:(11)01:22:32:113
01:31:39.785 : en:(12)01:31:39:785
01:35:24.927 : en:(13)01:35:24:927
Благодарности релизеру (9)

Торрент:

Статус:

Размер:

Зарегистрирован   [ 2012-10-16 15:44 ]

* не проверено

10.73 GB