Торренты   
 
 

 

В случае убийства набирайте М / Dial M for Murder (Альфред Хичкок) [1954 г., BDRip 1080p, Full OverUnder]

Рейтинг 3D:
15 голосов
7.8
Рейтинг фильма:
17 голосов
9.0
 
Вы должны быть авторизированы,
чтобы ставить оценки


В случае убийства набирайте М / Dial M for Murder
Год выпуска: 1954
Страна: США
Жанр: Детектив, Триллер
Продолжительность: 01:45:22
Перевод: Профессиональный (многоголосый, закадровый)
Режиссер: Альфред Хичкок
В ролях: Рэй Миллэнд, Грэйс Келли, Роберт Каммингс), Джон Уильямс, Энтони Доусон, Лео Бритт, Патрик Аллен, Джордж Ли, Джордж Олдерсон, Робин Хьюз
Описание: Тони Вендис, бывший плейбой и звезда большого тенниса, прожигающий деньги своей красавицы-жены Марго, решается на преступление, когда узнает, что может лишиться ее миллионов, так как Марго увлеклась американским писателем детективных романов Марком Холлидэем.
Тони придумывает план идеального убийства, находит надежного исполнителя и организует себе безупречное алиби. Он предусматривает все, кроме необычного поведения Марго и аналитических способностей Марка ..
Формат 3D: OverUnder
Видео: AVC, High@L5.0, 1920x2160, 23.976 fps, 42,7 Мбит/сек
Аудио: Rus, AC-3, 6 каналов, 192 Кбит/сек, 48,0 КГц
Аудио: Eng, DTS, 6 каналов, 755 Кбит/сек, 48,0 КГц

Скриншоты




MediaInfo

Общее
Уникальный идентификатор : 234793467914030893259101838995997816436 (0xB0A393BA37E1B92ABE4C173CD9077674)
Полное имя : E:\STEREO\Dial M for Murder 1080p.mkv
Формат : Matroska
Версия формата : Version 2
Размер файла : 32,8 Гбайт
Продолжительность : 1 ч. 45 м.
Общий поток : 44,6 Мбит/сек
Название фильма : Rip by Dag13
Дата кодирования : UTC 2012-10-16 15:46:09
Программа кодирования : mkvmerge v3.4.0 ('Rapunzel') сборка от May 15 2010 09:38:20
Библиотека кодирования : libebml v0.8.0 + libmatroska v0.9.0
Видео
Идентификатор : 1
Формат : AVC
Формат/Информация : Advanced Video Codec
Профиль формата : High@L5.0
Параметр CABAC формата : Да
Параметр ReFrames формата : 4 кадра
Идентификатор кодека : V_MPEG4/ISO/AVC
Продолжительность : 1 ч. 45 м.
Битрейт : 42,7 Мбит/сек
Ширина : 1920 пикселей
Высота : 2160 пикселей
Соотношение сторон : 0,889
Режим частоты кадров : Постоянный
Частота кадров : 23,976 кадра/сек
Цветовое пространство : YUV
Субдискретизация насыщенности : 4:2:0
Битовая глубина : 8 бит
Тип развёртки : Прогрессивная
Бит/(Пиксели*Кадры) : 0.430
Размер потока : 31,5 Гбайт (96%)
Библиотека кодирования : x264 core 120 r2145 748fe16
Настройки программы : cabac=1 / ref=4 / deblock=1:-3:-2 / analyse=0x3:0x113 / me=umh / subme=9 / psy=1 / psy_rd=1.00:0.00 / mixed_ref=1 / me_range=16 / chroma_me=1 / trellis=1 / 8x8dct=1 / cqm=0 / deadzone=21,11 / fast_pskip=1 / chroma_qp_offset=-2 / threads=9 / sliced_threads=0 / nr=0 / decimate=1 / interlaced=0 / bluray_compat=0 / constrained_intra=0 / bframes=6 / b_pyramid=0 / b_adapt=2 / b_bias=0 / direct=3 / weightb=1 / open_gop=0 / weightp=2 / keyint=250 / keyint_min=23 / scenecut=40 / intra_refresh=0 / rc_lookahead=60 / rc=crf / mbtree=1 / crf=18.0 / qcomp=0.60 / qpmin=1 / qpmax=61 / qpstep=4 / ip_ratio=1.40 / aq=1:1.00
Язык : English
Default : Нет
Forced : Нет
Аудио #1
Идентификатор : 2
Формат : AC-3
Формат/Информация : Audio Coding 3
Расширение режима : CM (complete main)
Параметр Endianness формата : Big
Идентификатор кодека : A_AC3
Продолжительность : 1 ч. 45 м.
Вид битрейта : Постоянный
Битрейт : 192 Кбит/сек
Каналы : 2 канала
Расположение каналов : Front: L R
Частота : 48,0 КГц
Битовая глубина : 16 бит
Метод сжатия : С потерями
Задержка видео : 1 с. 0 мс.
Размер потока : 145 Мбайт (0%)
Язык : Russian
Default : Да
Forced : Нет
Аудио #2
Идентификатор : 3
Формат : DTS
Формат/Информация : Digital Theater Systems
Идентификатор кодека : A_DTS
Продолжительность : 1 ч. 45 м.
Вид битрейта : Постоянный
Битрейт : 755 Кбит/сек
Каналы : 1 канал
Расположение каналов : Front: C
Частота : 48,0 КГц
Битовая глубина : 24 бит
Метод сжатия : С потерями
Размер потока : 569 Мбайт (2%)
Язык : English
Default : Нет
Forced : Нет
На встроенных ТВ-плейерах показывать НЕ будет!!!
Остальные раздачи этого фильма (2)
Благодарности релизеру (7)

Торрент:

Статус:

Размер:

Зарегистрирован   [ 2012-10-16 20:19 ]

проверено

32.81 GB

 
 Мнение о фильме (14)





Клас!Вот снимали же в 50-х прошлого века и без компов!!!!Релизеру респект!:)
 

Спасибо огромное! Посмотрю теперь на принцессу Грейс и на короля триллеров в 3D!
 

Всем пожалуйста и приятного просмотра!
 

Черт, фантастический объем!!! Невероятно, но мне хотелось прям посторониться, когда мимо меня сновала Грейс Келли! Огромное спасибо!
 

фильм посмотреть можно, но качество оставляет желать лучшего как самой картинки, так и 3D. Вообще не понятно, зачем из 2D делать 3D, если все действие происходит в одном помещении...
 

Да фильм без "вылетов", но при том 3D в норме и очень приятно смотрится. Я насчитал 3-5 уровней глубины объема, картинка не просто "утоплена" внутрь.
Старый, добрый, наивно-милый фильм приобрел новое качество, и "картинка" вполне, фильм все же 54-го года.
И вообще, за 3-4-5 D будущее, и оно должно охватывать весь спектр кинематографа. В лавине зубодробительных "трансформеров" аватаров и пр. приятно увидеть настоящее кино, без "фокусов", с сюжетом, драмой и вполне приличном 3D.
И огромная благодарность людям, дающим нам эту возможность, а смотреть или нет это уж выбор каждого.
Спасибо.
 

не понятно, зачем из 2D делать 3D
Иногда, если не знаешь, лучше помолчать. Этот фильм изначально снимался в 3D на Natural Vision 3-D camera, так что 3D тут честное. Да и картинка с учетом того, что фильм 1954 г вполне нормальная.
 

Для 54-го года - ДА
 

скорее всего фильм снимался для стереокинотеатров(тогда такие в моде были) из него теперь 3Д сделали а фильм шикарный! да ещё 16:9 редкость
 

из него теперь 3Д сделали
Что значит "теперь сделали"? Ни чего из него не сделали кроме как с пленки сканировать в цифру и возможно реставрирование от царапин и цветокоррекция. Много лет назад этот фильм был в сети в анаглифе и на ДВД интерлейс в 3Д, ещё до слухов что в будущем 3Д ТВ будут и даже отдельный 3Д треккер:). И конвертации 2Д-3Д тогда не было, кроме как понятие "псевдостерео" но его всерьез не считали как и музыку, приставки паяли "псевдостерео". Да и в СССР много старых 3Д фильмов было, только не реставрируют или похерили за копейки, всё за бугор вывезли. И "3Д" называлось правильно - стереоскопия.
 

В конце 70-х в кинотеатре Октябрь (в Москве) крутили только два фильма "SOS над тайгой", и "Замурованный в стекле" снятые в формате "Стерео-70" (мы пацанами ходили на них раз по 5-10), сюжеты непретязательны: один - про геологов и пожар в лесу, второй - восточная сказка. Но стерео эфекты были потрясающие. А какие были вылеты... То топор летит в зрителей - весь зал аж под кресла приседает... То канатоходец (с завязанными глазами) ногой ищет канат... Полное ощущение, что канат уходит куда-то дальше за тебя, а ногой он "перещупал" головы чуть ли не всех сидящих перед тобой зрителей, и т.д. и т.п. А "старики" (ребята лет на пять постарше) говорили: "Да это всё ерунда, вот "Таинственный монах" (фильм 1967 года, на тот момент уже снятый с проката), вот это фильм, вот там было стерео так стерео". А в сегодняшних 3D фильмах я не вижу нормальных вылетов, даже отдаленно похожих на те... Большая часть просмотренных мною сегодняшних 3D фильмов практически не отличается от "2D конвертированных в 3D" (на телевизоре LG). Исключение, разве что демо ролики LG.
 

Как можно такое писать;-"Фильм без вылетов"? Вылеты почти постоянно,у меня создалось впечатление,что люди на переднем плане постоянно ходят перед экраном,столы,кресла,бар! 3Д - реальное! 1954 год,в цвете! Ничего подоб.пока не видел.
 

mavrus, Возможно,где-то вы правы,однако,большинство из нас дома смотрит совсем не на таких огромных экранах.Уверен - на проэкторах эффект серьезней. И,в "Пункте назначения-5" арматура упиралась мне в правый глаз (чувство - не для слабонервных),есть и еще. Надеюсь, основное - впереди,возможности 3Д растут,как грибы после дождя.
 

Встаньте на раздачу, пож.