Торренты   
 
 

 

Ледниковый период 4: Континентальный дрейф / Ice Age: Continental Drift (Стив Мартино, Майк Трумейер) [2012 г., BDRip 1080p, Full OverUnder]

Рейтинг 3D:
133 голосов
8.3
Рейтинг фильма:
131 голосов
8.2
 
Вы должны быть авторизированы,
чтобы ставить оценки


Ледниковый период 4: Континентальный дрейф / Ice Age: Continental Drift
Год выпуска: 2012
Страна: США
Жанр: мультфильм, комедия, приключения, семейный
Продолжительность: 01:27:45
Перевод: Профессиональный (полное дублирование)
Режиссер: Стив Мартино, Майк Трумейер
В ролях: Рэй Романо, Джон Легуизамо, Куин Латифа, Дэнис Лири, Джош Пек, Питер Динклэйдж, Кеке Палмер, Дженнифер Лопес, Ник Фрост, Азиз Ансари, Джой Бехар, Кристофер Кэмпбелл, Ален Шаба, Эстер Дин, Обри Грэм, Джейсон Фриччион, Джош Гад, Джордж Джейкобс, Ники Минаж, Хезер Моррис, Кунал Найяр, Джеймс Палумбо, Саймон Пегг, Элли Романо, Шонн Уильям Скотт, Мэттью Симмонс, Эдди «Пайолин» Сотело, Патрик Стюарт, Ванда Сайкес, Меган Трумейер, Алан Тьюдик, Крис Уэдж, Ребел Уилсон, Эшли Альберт, Эдита Брыхта, Дэннис Т. Карнеги, Эме Кастл, Джим Конрой, Нола Донкин, Дэн Флаэрти, Мэриев Херингтон, Джейсон Харрис, Сондра Джеймс, Линда Джой
Описание: После приключений под землей прошло семь лет. Случился дрейф континентов. Главные герои мультфильма, отделённые от стада, вынуждены использовать айсберг в качестве плота. Они пересекают океан и попадают в неизвестные им ранее земли с экзотическими животными и пиратами, враждебно настроенными к ним. Скрэту удаётся получить свой жёлудь, но он перемещается в новые для него земли.
Формат 3D: OverUnder
Видео: AVC, High@L5.0, 1920x1600, 23.976 fps, 14,5 Мбит/сек
Аудио: Rus, DTS, 6 каналов, 755 Кбит/сек, 48,0 КГц
Аудио: Ukr, AC-3, 6 каналов, 448 Кбит/сек, 48,0 КГц
Аудио: Eng, DTS, 6 каналов, 1510 Кбит/сек, 48,0 КГц

Скриншоты




MediaInfo

Общее
Уникальный идентификатор : 242371390099989896353137486197652666854 (0xB65708231A6E7850B6099E4D1A7F39E6)
Полное имя : E:\STEREO\Ice Age_Continental Drift 1080p.mkv
Формат : Matroska
Версия формата : Version 2
Размер файла : 10,8 Гбайт
Продолжительность : 1 ч. 27 м.
Общий поток : 17,7 Мбит/сек
Название фильма : Rip by Dag13
Дата кодирования : UTC 2012-10-26 16:24:44
Программа кодирования : mkvmerge v3.4.0 ('Rapunzel') сборка от May 15 2010 09:38:20
Библиотека кодирования : libebml v0.8.0 + libmatroska v0.9.0
Видео
Идентификатор : 1
Формат : AVC
Формат/Информация : Advanced Video Codec
Профиль формата : High@L5.0
Параметр CABAC формата : Да
Параметр ReFrames формата : 5 кадров
Идентификатор кодека : V_MPEG4/ISO/AVC
Продолжительность : 1 ч. 27 м.
Битрейт : 14,6 Мбит/сек
Ширина : 1920 пикселей
Высота : 1600 пикселей
Соотношение сторон : 1,200
Режим частоты кадров : Постоянный
Частота кадров : 23,976 кадра/сек
Цветовое пространство : YUV
Субдискретизация насыщенности : 4:2:0
Битовая глубина : 8 бит
Тип развёртки : Прогрессивная
Бит/(Пиксели*Кадры) : 0.199
Размер потока : 8,97 Гбайт (83%)
Библиотека кодирования : x264 core 120 r2145 748fe16
Настройки программы : cabac=1 / ref=5 / deblock=1:-3:-2 / analyse=0x3:0x113 / me=umh / subme=9 / psy=1 / psy_rd=1.00:0.00 / mixed_ref=1 / me_range=16 / chroma_me=1 / trellis=1 / 8x8dct=1 / cqm=0 / deadzone=21,11 / fast_pskip=1 / chroma_qp_offset=-2 / threads=9 / sliced_threads=0 / nr=0 / decimate=1 / interlaced=0 / bluray_compat=0 / constrained_intra=0 / bframes=6 / b_pyramid=2 / b_adapt=2 / b_bias=0 / direct=3 / weightb=1 / open_gop=0 / weightp=2 / keyint=250 / keyint_min=23 / scenecut=40 / intra_refresh=0 / rc_lookahead=60 / rc=crf / mbtree=1 / crf=18.0 / qcomp=0.60 / qpmin=1 / qpmax=69 / qpstep=4 / ip_ratio=1.40 / aq=1:1.00
Язык : English
Default : Нет
Forced : Нет
Аудио #1
Идентификатор : 2
Формат : DTS
Формат/Информация : Digital Theater Systems
Идентификатор кодека : A_DTS
Продолжительность : 1 ч. 27 м.
Вид битрейта : Постоянный
Битрейт : 755 Кбит/сек
Каналы : 6 каналов
Расположение каналов : Front: L C R, Side: L R, LFE
Частота : 48,0 КГц
Битовая глубина : 24 бит
Метод сжатия : С потерями
Размер потока : 474 Мбайт (4%)
Язык : Russian
Default : Да
Forced : Нет
Аудио #2
Идентификатор : 3
Формат : AC-3
Формат/Информация : Audio Coding 3
Расширение режима : CM (complete main)
Параметр Endianness формата : Big
Идентификатор кодека : A_AC3
Продолжительность : 1 ч. 27 м.
Вид битрейта : Постоянный
Битрейт : 448 Кбит/сек
Каналы : 6 каналов
Расположение каналов : Front: L C R, Side: L R, LFE
Частота : 48,0 КГц
Битовая глубина : 16 бит
Метод сжатия : С потерями
Размер потока : 281 Мбайт (3%)
Язык : Ukrainian
Default : Нет
Forced : Нет
Аудио #3
Идентификатор : 4
Формат : DTS
Формат/Информация : Digital Theater Systems
Идентификатор кодека : A_DTS
Продолжительность : 1 ч. 27 м.
Вид битрейта : Постоянный
Битрейт : 1510 Кбит/сек
Каналы : 6 каналов
Расположение каналов : Front: L C R, Side: L R, LFE
Частота : 48,0 КГц
Битовая глубина : 24 бит
Метод сжатия : С потерями
Размер потока : 948 Мбайт (9%)
Язык : English
Default : Нет
Forced : Нет
На встроенных ТВ-плейерах показывать НЕ будет!!!Торрент обновлен, русский звук заменен на лицензию, добавлен украинский дубляж. Просьба перезакочать торрент файл.
Остальные раздачи этого фильма (4)
Благодарности релизеру (16)

Торрент:

Статус:

Размер:

Зарегистрирован   [ 2012-10-27 19:10 ]

проверено

10.85 GB

 
 Мнение о фильме (24)

1, 2  След.






Один из лучших.Звери прямо высовываются с экрана.Классно.
 

Спасибо! Мульт понравился, 3Д хорошее! Ржака вообщем!!!
 

Сюжет фильма подобен многозаходной спирали, динамика фильма
просто потрясает, краски, звук - выше всяких похвал.
3D - впечатляет. Спасибо релизеру и всем причастным к раздаче.
 

Супер мульт!
 

супер
 

супер-суперский,3Д отличнейшее. спасибо агромное!!!
 

спасибо за релиз)
зал был в восторге,а я считаю, что "не особо" - предсказуемо, но очень харизматичный капитан вытянул мульт.
 

Посмотрели мульт на LG42LM640T - качество и звук отличные!!! Огромное спасибо релизеру! Побольше таких раздач и в таком формате ! Ну и с Рождеством Христовым !!!
 

Отличный мульт. Обязательно качать и смотреть
 

Спасибо, хороший мульт.
 

спасибо отличный мультик.
 

Спасибо, отличный мульт, дочка очень рада.
 
Владимир 78 Профиль 26-Май-2013 14:44

я так и не понял одни пишут эфектов- вылетов нет другие пишут обратное кто посмотрел вылеты есть или нет
 
tamplier1902@mail.ru Профиль 04-Июн-2013 12:17

Вылетов нет, но эффектов мало и экран сплюснутый.
 

Вылетов нет. Мульт отличный.
 

Классный мульт! И 3D отличное! Скачивайте, не пожалеете!
 

НЕ ОЧЕНЬ!!!
 

mne ponravilosj
 

3d хорошее. Смотрел на LG
 

мне понравилось
 

Страница 1 из 2

1, 2  След.