Торренты   
 
 

 

Ледниковый период 4: Континентальный дрейф / Ice Age: Continental Driftpic [2012 г.,BDRip, Crop Anamorph OverUnder]

Рейтинг 3D:
133 голосов
8.3
Рейтинг фильма:
131 голосов
8.2
 
Вы должны быть авторизированы,
чтобы ставить оценки


Ледниковый период 4: Континентальный дрейф / Ice Age: Continental Drift
Год выпуска: 2012
Страна: США
Жанр: мультфильм, комедия, приключения, семейный
Продолжительность: 01:27:45
Перевод: Профессиональный (полное дублирование)
Режиссер: Стив Мартино, Майк Трумейер
В ролях: Рэй Романо, Джон Легуизамо, Куин Латифа, Дэнис Лири, Джош Пек, Питер Динклэйдж, Кеке Палмер, Дженнифер Лопес, Ник Фрост, Азиз Ансари, Джой Бехар, Кристофер Кэмпбелл, Ален Шаба, Эстер Дин, Обри Грэм, Джейсон Фриччион, Джош Гад, Джордж Джейкобс, Ники Минаж, Хезер Моррис, Кунал Найяр, Джеймс Палумбо, Саймон Пегг, Элли Романо, Шонн Уильям Скотт, Мэттью Симмонс, Эдди «Пайолин» Сотело, Патрик Стюарт, Ванда Сайкес, Меган Трумейер, Алан Тьюдик, Крис Уэдж, Ребел Уилсон, Эшли Альберт, Эдита Брыхта, Дэннис Т. Карнеги, Эме Кастл, Джим Конрой, Нола Донкин, Дэн Флаэрти, Мэриев Херингтон, Джейсон Харрис, Сондра Джеймс, Линда Джой
Описание: После приключений под землей прошло семь лет. Случился дрейф континентов. Главные герои мультфильма, отделённые от стада, вынуждены использовать айсберг в качестве плота. Они пересекают океан и попадают в неизвестные им ранее земли с экзотическими животными и пиратами, враждебно настроенными к ним. Скрэту удаётся получить свой жёлудь, но он перемещается в новые для него земли.
Внимание: Справа и слева у видеоряда обрезано по 248р, что дает возможность просмотра на полный экран (без черных полос) на телевизорах с соотношением сторон 16:9 без изменения пропорций.
Более подробная информация
Формат 3D: OverUnder
Видео: AVC, High@L4.0, 1920x1080, 23.976 fps, 10,0 Мбит/сек
Аудио: Rus, AC-3, 6 каналов, 640 Кбит/сек, 48,0 КГц
Аудио: Ukr, AC-3, 6 каналов, 448 Кбит/сек, 48,0 КГц
Аудио: Eng, AC-3, 6 каналов, 640 Кбит/сек, 48,0 КГц

Скриншоты




MediaInfo

Общее
Уникальный идентификатор : 225649928837188664870932594229039376364 (0xA9C29872024CD2DA89CFAD7DAE50A7EC)
Полное имя : E:\STEREO CROP\Ice Age_Continental Drift_(CROP)_Rip by Dag13.mkv
Формат : Matroska
Версия формата : Version 2
Размер файла : 7,40 Гбайт
Продолжительность : 1 ч. 27 м.
Общий поток : 12,1 Мбит/сек
Дата кодирования : UTC 2012-10-27 15:20:10
Программа кодирования : mkvmerge v3.4.0 ('Rapunzel') сборка от May 15 2010 09:38:20
Библиотека кодирования : libebml v0.8.0 + libmatroska v0.9.0
Видео
Идентификатор : 1
Формат : AVC
Формат/Информация : Advanced Video Codec
Профиль формата : High@L4.0
Параметр CABAC формата : Да
Параметр ReFrames формата : 4 кадра
Идентификатор кодека : V_MPEG4/ISO/AVC
Продолжительность : 1 ч. 27 м.
Битрейт : 10,1 Мбит/сек
Ширина : 1920 пикселей
Высота : 1080 пикселей
Соотношение сторон : 16:9
Режим частоты кадров : Постоянный
Частота кадров : 23,976 кадра/сек
Цветовое пространство : YUV
Субдискретизация насыщенности : 4:2:0
Битовая глубина : 8 бит
Тип развёртки : Прогрессивная
Бит/(Пиксели*Кадры) : 0.203
Размер потока : 6,20 Гбайт (84%)
Заголовок : Rip by Dag13
Библиотека кодирования : x264 core 120 r2145 748fe16
Настройки программы : cabac=1 / ref=4 / deblock=1:-3:-2 / analyse=0x3:0x113 / me=umh / subme=9 / psy=1 / psy_rd=1.00:0.00 / mixed_ref=1 / me_range=16 / chroma_me=1 / trellis=1 / 8x8dct=1 / cqm=0 / deadzone=21,11 / fast_pskip=1 / chroma_qp_offset=-2 / threads=9 / sliced_threads=0 / nr=0 / decimate=1 / interlaced=0 / bluray_compat=0 / constrained_intra=0 / bframes=6 / b_pyramid=2 / b_adapt=2 / b_bias=0 / direct=3 / weightb=1 / open_gop=0 / weightp=2 / keyint=250 / keyint_min=23 / scenecut=40 / intra_refresh=0 / rc_lookahead=60 / rc=crf / mbtree=1 / crf=18.0 / qcomp=0.60 / qpmin=1 / qpmax=69 / qpstep=4 / ip_ratio=1.40 / aq=1:1.00
Язык : English
Default : Нет
Forced : Нет
Аудио #1
Идентификатор : 2
Формат : AC-3
Формат/Информация : Audio Coding 3
Расширение режима : CM (complete main)
Параметр Endianness формата : Big
Идентификатор кодека : A_AC3
Продолжительность : 1 ч. 27 м.
Вид битрейта : Постоянный
Битрейт : 640 Кбит/сек
Каналы : 6 каналов
Расположение каналов : Front: L C R, Side: L R, LFE
Частота : 48,0 КГц
Битовая глубина : 16 бит
Метод сжатия : С потерями
Размер потока : 402 Мбайт (5%)
Язык : Russian
Default : Да
Forced : Нет
Аудио #2
Идентификатор : 3
Формат : AC-3
Формат/Информация : Audio Coding 3
Расширение режима : CM (complete main)
Параметр Endianness формата : Big
Идентификатор кодека : A_AC3
Продолжительность : 1 ч. 27 м.
Вид битрейта : Постоянный
Битрейт : 448 Кбит/сек
Каналы : 6 каналов
Расположение каналов : Front: L C R, Side: L R, LFE
Частота : 48,0 КГц
Битовая глубина : 16 бит
Метод сжатия : С потерями
Размер потока : 281 Мбайт (4%)
Язык : Ukrainian
Default : Нет
Forced : Нет
Аудио #3
Идентификатор : 4
Формат : AC-3
Формат/Информация : Audio Coding 3
Расширение режима : CM (complete main)
Параметр Endianness формата : Big
Идентификатор кодека : A_AC3
Продолжительность : 1 ч. 27 м.
Вид битрейта : Постоянный
Битрейт : 640 Кбит/сек
Каналы : 6 каналов
Расположение каналов : Front: L C R, Side: L R, LFE
Частота : 48,0 КГц
Битовая глубина : 16 бит
Метод сжатия : С потерями
Размер потока : 402 Мбайт (5%)
Язык : English
Default : Нет
Forced : Нет
Торрент обновлен, русский звук заменен на лицензию, добавлен украинский дубляж. Просьба перезакочать торрент файл.
Остальные раздачи этого фильма (4)
Благодарности релизеру (131)

Торрент:

Статус:

Размер:

Зарегистрирован   [ 2012-10-27 19:46 ]

проверено

7.4 GB

 
 Мнение о фильме (24)

Пред.  1, 2






мульт хороший,3Д отличнейшее. Качество и звук-прекрасные! Смотрел на LG 42 LM620T
 

Отличный фильм!!!
Смотреть сплошное удовольствие.
 

на LG 47LA620V 3D на высоте. Вылетов море.
 

Отличное качество, на philips 42pfl6907t12 просто великолепно!
 

Страница 2 из 2

Пред.  1, 2