Торренты   
 
 

 

Ледниковый период 4: Континентальный дрейф / Ice Age: Continental Drift [2012 г., BDrip, Anamorph OverUnder]

Рейтинг 3D:
133 голосов
8.3
Рейтинг фильма:
131 голосов
8.2
 
Вы должны быть авторизированы,
чтобы ставить оценки



Ледниковый период 4: Континентальный дрейф
Ice Age: Continental Drift

Год выпуска: 2012
Страна: США (20th Century Fox, Blue Sky Studios и др.)
Жанр: мультфильм, комедия, приключения
Продолжительность: 01:27:45
Перевод: Профессиональный (дублированный) [лицензия]
Русские субтитры: нет
Режиссер: Стив Мартино, Майк Тёрмайер
Сценарий: Майкл Берг, Джейсон Фучс
Продюсер: Джон С. Донкин, Лори Форте, Карлос Салдана
Оператор: Ренато Фалькао
Художник: Нэш Данниган
Монтаж: Кристофер Кэмпбелл, Джеймс Палумбо, Дэвид Йен Сэлтер
Роли озвучивали:
Рэй Романо, Джон Легуизамо, Куин Латифа, Дэнис Лири, Джош Пек, Азиз Ансари, Джой Бехар, Кристофер Кэмпбелл, Ален Шаба, Эстер Дин и др.
Роли дублировали:
Степан Старчиков, Антон Комолов, Ольга Шелест, Александр Груздев, Иван Охлобыстин и др.
Описание:
После приключений под землей прошло семь лет. Случился дрейф континентов. Главные герои мультфильма, отделённые от стада, вынуждены использовать айсберг в качестве плота. Они пересекают океан и попадают в неизвестные им ранее земли с экзотическими животными и пиратами, враждебно настроенными к ним. Скрэту удаётся получить свой жёлудь, но он перемещается в новые для него земли.

Знаете ли вы, что...


  • Главный злодей капитан Гад — это гигантопитек (доисторический орангутанг).
  • Джереми Реннер должен был участвовать в мультфильме, но покинул проект из-за несогласованности расписаний съемок.
  • По слухам, первоначальная версия сюжета включала в себя Мэнни, Сида, Диего, Элли и Белку замерзших во льдах и случайно размороженных в музее в наши дни. Фильм предположительно должен был называться «Ice Age: Th4w».

Техн. детали съёмки

  • Формат изображения: 2.35 : 1
  • Формат копии: 35 mm (anamorphic) (Fuji Eterna-CP 3514DI)
    D-Cinema (also 3-D version)
  • Изображение: цветное

Релиз группы:

Бюджет: $95 000 000
Сборы в мире: $863 683 568
Премьера: 26 июня 2012 (12 июля 2012)
Релиз на Blu-Ray: 1 ноября 2012, «Двадцатый Век Фокс СНГ»



Проверено на встроенном плейере ТВ LG 42LW4500
--
Качество: BDrip by StarStranger
Контейнер: MKV
Формат 3D: Anamorph OverUnder / Вертикальная анаморфная стереопара
Порядок ракурсов: левый ракурс первый
Видео кодек: x264
Аудио кодек: AC3
Видео: AVC / 23,976 fps / 1920х1080p / 10,1 Мbps
Аудио:
Русский / AC3 / 48 KHz / 5.1 ch / 640 Kbps
Украинский / AC3 / 48 KHz / 5.1 ch / 448 Kbps
Английский / AC3 / 48 KHz / 5.1 ch / 640 Kbps
Субтитры: Русские, Украинские, Английские (Отдельно)

MediaInfo

x264 log

Код:
Общее
Уникальный идентификатор                 : 241951195178793063180326661634489122389 (0xB6061AED919B33CB9147E31FE228FE55)
Полное имя                               : G:\IceAge.ContinentalDrift.3D.2012.BD3DRip.Half.OU.x264.AC3.Rus.Ukr.Eng.3D-RuGroup.mkv
Формат                                   : Matroska
Версия формата                           : Version 2
Размер файла                             : 7,37 Гбайт
Продолжительность                        : 1 ч. 27 м.
Общий поток                              : 12,0 Мбит/сек
Название фильма                          : rip by StarStranger release 3D-RuGroup
Дата кодирования                         : UTC 2012-10-25 20:30:30
Программа кодирования                    : mkvmerge v3.4.0 ('Rapunzel') сборка от May 15 2010 09:38:20
Библиотека кодирования                   : libebml v0.8.0 + libmatroska v0.9.0
Видео
Идентификатор                            : 1
Формат                                   : AVC
Формат/Информация                        : Advanced Video Codec
Профиль формата                          : High@L4.1
Параметр CABAC формата                   : Да
Параметр ReFrames формата                : 4 кадра
Идентификатор кодека                     : V_MPEG4/ISO/AVC
Продолжительность                        : 1 ч. 27 м.
Битрейт                                  : 10,1 Мбит/сек
Ширина                                   : 1920 пикселей
Высота                                   : 1080 пикселей
Соотношение сторон                       : 16:9
Частота кадров                           : 23,976 кадра/сек
Цветовое пространство                    : YUV
Субдискретизация насыщенности            : 4:2:0
Битовая глубина                          : 8 бит
Тип развёртки                            : Прогрессивная
Бит/(Пиксели*Кадры)                      : 0.202
Размер потока                            : 6,16 Гбайт (84%)
Библиотека кодирования                   : x264 core 128 r2216 198a7ea
Настройки программы                      : cabac=1 / ref=4 / deblock=1:-3:-3 / analyse=0x3:0x133 / me=umh / subme=10 / psy=1 / psy_rd=1.00:0.15 / mixed_ref=1 / me_range=48 / chroma_me=1 / trellis=2 / 8x8dct=1 / cqm=0 / deadzone=21,11 / fast_pskip=0 / chroma_qp_offset=-3 / threads=3 / lookahead_threads=1 / sliced_threads=0 / nr=0 / decimate=1 / interlaced=0 / bluray_compat=0 / constrained_intra=0 / bframes=7 / b_pyramid=2 / b_adapt=2 / b_bias=0 / direct=3 / weightb=1 / open_gop=0 / weightp=2 / keyint=250 / keyint_min=23 / scenecut=40 / intra_refresh=0 / rc_lookahead=60 / rc=crf / mbtree=1 / crf=16.5 / qcomp=0.70 / qpmin=0 / qpmax=69 / qpstep=4 / vbv_maxrate=50000 / vbv_bufsize=50000 / crf_max=0.0 / nal_hrd=none / ip_ratio=1.40 / aq=1:0.70
Default                                  : Да
Forced                                   : Нет
Аудио #1
Идентификатор                            : 2
Формат                                   : AC-3
Формат/Информация                        : Audio Coding 3
Расширение режима                        : CM (complete main)
Идентификатор кодека                     : A_AC3
Продолжительность                        : 1 ч. 27 м.
Вид битрейта                             : Постоянный
Битрейт                                  : 640 Кбит/сек
Каналы                                   : 6 каналов
Расположение каналов                     : Front: L C R, Side: L R, LFE
Частота                                  : 48,0 КГц
Битовая глубина                          : 16 бит
Метод сжатия                             : С потерями
Задержка видео                           : 1 с. 0 мс.
Размер потока                            : 402 Мбайт (5%)
Язык                                     : Russian
Default                                  : Да
Forced                                   : Нет
Аудио #2
Идентификатор                            : 3
Формат                                   : AC-3
Формат/Информация                        : Audio Coding 3
Расширение режима                        : CM (complete main)
Идентификатор кодека                     : A_AC3
Продолжительность                        : 1 ч. 27 м.
Вид битрейта                             : Постоянный
Битрейт                                  : 448 Кбит/сек
Каналы                                   : 6 каналов
Расположение каналов                     : Front: L C R, Side: L R, LFE
Частота                                  : 48,0 КГц
Битовая глубина                          : 16 бит
Метод сжатия                             : С потерями
Задержка видео                           : 1 с. 0 мс.
Размер потока                            : 281 Мбайт (4%)
Язык                                     : Ukrainian
Default                                  : Нет
Forced                                   : Нет
Аудио #3
Идентификатор                            : 4
Формат                                   : AC-3
Формат/Информация                        : Audio Coding 3
Расширение режима                        : CM (complete main)
Идентификатор кодека                     : A_AC3
Продолжительность                        : 1 ч. 27 м.
Вид битрейта                             : Постоянный
Битрейт                                  : 640 Кбит/сек
Каналы                                   : 6 каналов
Расположение каналов                     : Front: L C R, Side: L R, LFE
Частота                                  : 48,0 КГц
Битовая глубина                          : 16 бит
Метод сжатия                             : С потерями
Задержка видео                           : 1 с. 0 мс.
Размер потока                            : 402 Мбайт (5%)
Язык                                     : English
Default                                  : Нет
Forced                                   : Нет
Меню
00:00:00.000                             : :01
00:03:25.038                             : :02
00:05:08.225                             : :03
00:09:34.407                             : :04
00:13:09.706                             : :05
00:15:56.330                             : :06
00:18:23.644                             : :07
00:22:24.718                             : :08
00:25:57.556                             : :09
00:29:18.966                             : :10
00:32:58.602                             : :11
00:36:15.382                             : :12
00:38:42.654                             : :13
00:43:49.710                             : :14
00:45:30.645                             : :15
00:49:39.977                             : :16
00:53:50.477                             : :17
00:57:23.857                             : :18
01:02:32.040                             : :19
01:08:09.335                             : :20
01:11:11.476                             : :21
01:13:15.641                             : :22
01:16:54.401                             : :23
01:19:24.635                             : :24

Скриншоты

Остальные раздачи этого фильма (4)
Благодарности релизеру (68)

Торрент:

Статус:

Размер:

Зарегистрирован   [ 2012-10-26 02:54 ]

проверено

7.37 GB

 
 Мнение о фильме (24)

1, 2  След.






Один из лучших.Звери прямо высовываются с экрана.Классно.
 

Спасибо! Мульт понравился, 3Д хорошее! Ржака вообщем!!!
 

Сюжет фильма подобен многозаходной спирали, динамика фильма
просто потрясает, краски, звук - выше всяких похвал.
3D - впечатляет. Спасибо релизеру и всем причастным к раздаче.
 

Супер мульт!
 

супер
 

супер-суперский,3Д отличнейшее. спасибо агромное!!!
 

спасибо за релиз)
зал был в восторге,а я считаю, что "не особо" - предсказуемо, но очень харизматичный капитан вытянул мульт.
 

Посмотрели мульт на LG42LM640T - качество и звук отличные!!! Огромное спасибо релизеру! Побольше таких раздач и в таком формате ! Ну и с Рождеством Христовым !!!
 

Отличный мульт. Обязательно качать и смотреть
 

Спасибо, хороший мульт.
 

спасибо отличный мультик.
 

Спасибо, отличный мульт, дочка очень рада.
 
Владимир 78 Профиль 26-Май-2013 14:44

я так и не понял одни пишут эфектов- вылетов нет другие пишут обратное кто посмотрел вылеты есть или нет
 
tamplier1902@mail.ru Профиль 04-Июн-2013 12:17

Вылетов нет, но эффектов мало и экран сплюснутый.
 

Вылетов нет. Мульт отличный.
 

Классный мульт! И 3D отличное! Скачивайте, не пожалеете!
 

НЕ ОЧЕНЬ!!!
 

mne ponravilosj
 

3d хорошее. Смотрел на LG
 

мне понравилось
 

Страница 1 из 2

1, 2  След.