Торренты   
 
 

 

Мстители / The Avengers (Джосс Уидон / Joss Whedon) [2012, BDrip, half1080p, Anamorph SideBySide]

Рейтинг 3D:
142 голосов
7.1
Рейтинг фильма:
144 голосов
7.9
 
Вы должны быть авторизированы,
чтобы ставить оценки


© Закрыто правообладателем
Год выпуска: 2012
Страна: США (Marvel, Paramaunt Pictures, Walt Disney Studios)
Жанр: Фантастика, Боевик
Продолжительность: 02:22:54
Перевод: Профессиональный (полное дублирование)
Режиссер: Джосс Уидон / Joss Whedon
В ролях:
Тони Старк / Железный человек - Роберт Дауни мл. (Владимир Зайцев)
Стив Роджерс / Капитан Америка - Крис Эванс (Даниил Эльдаров)
Брюс Баннер / Халк - Марк Руффало (Алексей Мясников)
Тор - Крис Хемсворт (Иван Жарков)
Наташа Романофф / Чёрная вдова - Скарлетт Йоханссон (Татьяна Шитова)
Клинт Бартон / Соколиный Глаз - Джереми Реннер (Илья Исаев)
Локи - Том Хиддлстон (Александр Гаврилин)
Ник Фьюри - Сэмюэл Л. Джексон (Владимир Антоник)
Агент Фил Коулсон - Кларк Грегг (Андрей Казанцев)
Агент Мария Хилл - Коби Смолдерс (Наталья Грачева)
Сельвиг - Стеллан Скарсгард (Василий Бочкарев)
Пеппер Поттс - Гвинет Пэлтроу (Полина Щербакова)
Джарвис (озвучка) - Пол Беттани (Вячеслав Баранов)
Описание №1: "Локи, сводный брат Тора, возвращается, и в этот раз он не один. Земля на грани порабощения, и только лучшие из лучших могут спасти человечество.
Ник Фьюри, глава международной организации Щ. И. Т., собирает выдающихся поборников справедливости и добра, чтобы отразить атаку. Под предводительством Капитана Америки Железный Человек, Тор, Невероятный Халк, Соколиный глаз и Чёрная Вдова вступают в войну с захватчиком."
Описание №2: "Когда Земле грозит смертельно опасный враг, спасение мира требует коллективных усилий. Невероятно богатый плейбой и изобретатель, русская шпионка, полубог, суперсолдат времён Второй мировой, профессиональный убийца и сумасшедший учёный объединяются в команду "Мстители". Им непросто работать вместе, но они последняя надежда человечества.
Встречайте невероятно зрелищный, масштабный, полный приключений, звёзд и юмора фантастический боевик в формате 3Д."
Формат 3D: Anamorph SideBySide
Качество: BDrip
Контейнер: MKV
Видео: AVC / 23,976 fps / 1920х1080p / 11.9 Mbps
Аудио:
№1 - Русский / AC3 / 48 KHz / 5.1 ch / 640 Kbps
№2 - Английский / AC3 / 48 KHz / 5.1 ch / 640 Kbps
Субтитры: (Вшитые .srt)
№1 - Русские полные
№2 - Русские форсированные (включены по умолчанию)Проверено на ТВ Samsung 40C7000 и Samsung 46D7000

MediaInfo

General
Unique ID : 246772281671796288829426170571198749364 (0xB9A69CD80C90BD0D9C1D0E6CDCDADAB4)
Complete name : The Avengers 3D [Мстители 3D] (2012) DUB hSbS 1080p.mkv
Format : Matroska
Format version : Version 2
File size : 13.4 GiB
Duration : 2h 22mn
Overall bit rate : 13.4 Mbps
Encoded date : UTC 2012-09-03 04:37:16
Writing application : mkvmerge v5.7.0 ('The Whirlwind') built on Jul 8 2012 20:08:51
Writing library : libebml v1.2.3 + libmatroska v1.3.0
Video
ID : 1
Format : AVC
Format/Info : Advanced Video Codec
Format profile : High@L4.1
Format settings, CABAC : Yes
Format settings, ReFrames : 4 frames
Format settings, GOP : M=1, N=3
Muxing mode : Header stripping
Codec ID : V_MPEG4/ISO/AVC
Duration : 2h 22mn
Bit rate : 11.9 Mbps
Width : 1 920 pixels
Height : 1 080 pixels
Display aspect ratio : 16:9
Frame rate : 23.976 fps
Color space : YUV
Chroma subsampling : 4:2:0
Bit depth : 8 bits
Scan type : Progressive
Bits/(Pixel*Frame) : 0.239
Stream size : 11.9 GiB (88%)
Writing library : x264 core 125 r2208 d9d2288
Encoding settings : cabac=1 / ref=4 / deblock=1:-3:-3 / analyse=0x3:0x133 / me=umh / subme=9 / psy=1 / psy_rd=1.00:0.00 / mixed_ref=1 / me_range=32 / chroma_me=1 / trellis=2 / 8x8dct=1 / cqm=0 / deadzone=21,11 / fast_pskip=1 / chroma_qp_offset=-2 / threads=12 / lookahead_threads=2 / sliced_threads=0 / nr=0 / decimate=1 / interlaced=0 / bluray_compat=0 / constrained_intra=0 / bframes=3 / b_pyramid=2 / b_adapt=1 / b_bias=0 / direct=3 / weightb=1 / open_gop=0 / weightp=2 / keyint=240 / keyint_min=23 / scenecut=40 / intra_refresh=0 / rc_lookahead=60 / rc=crf / mbtree=1 / crf=17.0 / qcomp=0.60 / qpmin=0 / qpmax=69 / qpstep=4 / ip_ratio=1.40 / aq=1:1.00
Language : English
Default : Yes
Forced : No
Audio #1
ID : 2
Format : AC-3
Format/Info : Audio Coding 3
Mode extension : CM (complete main)
Muxing mode : Header stripping
Codec ID : A_AC3
Duration : 2h 22mn
Bit rate mode : Constant
Bit rate : 640 Kbps
Channel(s) : 6 channels
Channel positions : Front: L C R, Side: L R, LFE
Sampling rate : 48.0 KHz
Bit depth : 16 bits
Compression mode : Lossy
Delay relative to video : 19ms
Stream size : 654 MiB (5%)
Title : Russian
Language : Russian
Default : Yes
Forced : Yes
Audio #2
ID : 3
Format : AC-3
Format/Info : Audio Coding 3
Mode extension : CM (complete main)
Muxing mode : Header stripping
Codec ID : A_AC3
Duration : 2h 22mn
Bit rate mode : Constant
Bit rate : 640 Kbps
Channel(s) : 6 channels
Channel positions : Front: L C R, Side: L R, LFE
Sampling rate : 48.0 KHz
Bit depth : 16 bits
Compression mode : Lossy
Delay relative to video : 19ms
Stream size : 654 MiB (5%)
Title : English
Language : English
Default : No
Forced : No
Text #1
ID : 4
Format : UTF-8
Codec ID : S_TEXT/UTF8
Codec ID/Info : UTF-8 Plain Text
Title : Russian
Language : Russian
Default : No
Forced : No
Text #2
ID : 5
Format : UTF-8
Codec ID : S_TEXT/UTF8
Codec ID/Info : UTF-8 Plain Text
Title : Russian (forced)
Language : Russian
Default : Yes
Forced : Yes
Menu
00:00:00.000 : en:00:00:00.000
00:08:02.315 : en:00:08:02.315
00:11:49.167 : en:00:11:49.167
00:15:18.751 : en:00:15:18.751
00:20:33.482 : en:00:20:33.482
00:23:04.258 : en:00:23:04.258
00:29:39.444 : en:00:29:39.444
00:37:23.992 : en:00:37:23.992
00:42:47.982 : en:00:42:47.982
00:50:22.269 : en:00:50:22.269
01:01:04.661 : en:01:01:04.661
01:14:05.107 : en:01:14:05.107
01:28:01.234 : en:01:28:01.234
01:38:20.561 : en:01:38:20.561
01:45:40.167 : en:01:45:40.167
01:51:15.085 : en:01:51:15.085
01:57:47.769 : en:01:57:47.769
02:04:38.680 : en:02:04:38.680
02:09:39.397 : en:02:09:39.397
02:13:10.691 : en:02:13:10.691
AVC / 23,976 fps / 1920х1080p / 11.9 Mbps
AVC / 23,976 fps / 1920х1080p / sdfsdfs

Скриншоты




Анимированые скриншоты ( для оценки 3D)



Остальные раздачи этого фильма (5)
Благодарности релизеру (42)

Торрент:

Статус:

Размер:

Зарегистрирован   [ 2012-10-18 12:05 ]

© закрыто правообладателем

13.42 GB

 
 Мнение о фильме (27)

1, 2  След.






фильм бомба и 3д тоже. Вылеты есть, мне очень понравился. Даже больше чем аватар , а трансформеры вообще нервно курят.
Смотрю через CyberLink PowerDVD 11.
Вопрос: Через что лучше смотреть CyberLink PowerDVD 11 или ArcSoft TotalMedia Theatre 5.
Жду коменты
 

Спасибо огромное за раздачу. Фильм по смыслу не хуже, чем лучшие фильмы по комиксам - хорош в своём жанре. Очень красиво снят и 3D картинка лично мне очень понравилось - оценил на 10. По -больше бы фильмов с таким качественным 3d. А вообще удивительно, как люди быстро привыкают к хорошему - лет 10 назад от такой красоты и детализации народ бы в трансе ходил дня 2 минимум :)
 
Ярослав Yarik Профиль 25-Окт-2012 23:54

Фильм просто БОМБА, особенно когда ты смотрел железных человеков, халка, тора, первого мстителя :) Ток вот 3Д тут не очень, я когда в кино смотрел во многих местах просто без очков было можно смотреть, а 3д сводился к объемному покаху интерьера... Но все равно круто круто круто!))
З.Ы. Все видели кусочек после титров??
3.Ы.Ы. А второй кусочек после после титров видели про шаурму?))))
 

очень мало 3Д, разницы нету между обычным фильмом. лучше бы я это не скачивал и ни кому не советую его скачивать!!!!!!!!!!
 

Нда...Оценка качества 3D варьируется от никакого до фантастического. Я так понимаю, что это все таки больше зависит от оборудования, на котором это все смотрится.
 

3dbigsize, смотрите среднюю, она наиболее объективна, чем оценка одного человека
 

фильм супер 3д норм)качайте не пожалеети
 

Я очень люблю кино и это будет ничего сказать (как говориться у нас в Одессе) если бы я не посмотрел (первые полчаса-больше не смог) этого "высокохудожественного" Блокбастера...Отдельно по себе можно еще посмотреть все фильмы про главных героев,НО ЭТОТ "ШЕДЕВР" я не смог переварить.
Я так думаю,что там присутствует пресловутый "25-й кадр" для зомбирования зрителей подобным трэшем.В кругу своих и моего сына знакомых и друзей , никто не решился его вообще смотреть...
Я рискнул :
Оценка фильма - жалко даже ноль поставить
Оценка 3D - трудно сказать,ввиду вышеизложенного.
 

Кто ждет вылетов, их таки не будет. Объем и ничего более. Присутствует несколько битых мест, из-за которых при воспроизведении на моем ТВ LG через флешку или DLNA вылетает в меню, короче зря скачал.
пара из десятка косяков
 

Спасибо. Фильм хороший, 3д фигня.
Не каких битых мест не обнаружено, к релизу претензий нет.
На встроенном плеере тв Филипс всё пошло отлично.
 

GRASHA, Вот за такие отзывы риперы и трудятся.
3DМан, Возможная проблема, файл скачался не весь (вернее с глюком хеша). Попробуйте перехешировать в клиенте.
 

3D у этого фильма изначально никакое, смотрел в кинотеатре. Рип хорош никаких претензий, но и без 3D он не хуже смотрится.
 

avm1960, Выключи мозги и смотри. Умник.
 

Фильм очень понравился, качество 3D тоже порадовало.
 

Фильм классный, только в начале темноват, а так и сюжет и 3d классно. Можно смотреть несколько раз
 

качественное кино и 3d вполне ...
 

Фильм хорошый и 3d норма спасибо !!!
 

фильм нормал, 3D тоже !!!
 

Фильм хорош, только в своем жанре, сыну 13 лет -- понравился, жена осилила лишь треть, я-же смотрел стерео, оно очень хорошее, но без "вылетов".
 

норм
 

Страница 1 из 2

1, 2  След.