Торренты   
 
 

 

Джoн Кaртер / Jоhn Cаrter [2012 г.,HDRip 1080p, Crop, Anamorph OverUnder]

Рейтинг 3D:
108 голосов
7.3
Рейтинг фильма:
108 голосов
8.3
 
Вы должны быть авторизированы,
чтобы ставить оценки


Джoн Кaртер
Год выпуска: 2012
Страна: США
Жанр: Фантастика, Фэнтези, Боевик, Приключения
Продолжительность: 02:12:01
Перевод: Профессиональный (полное дублирование)
Режиссер: Эндрю Стэнтон
В ролях: Тейлор Китч, Линн Коллинз, Саманта Мортон, Уиллем Дефо, Томас Хейден Чёрч, Марк Стронг, Кирен Хайдз, Доминик Уэст, Джеймс Пьюрфой, Брайан Крэнстон, Полли Уокер, Дэрил Сабара...
Описание: Ветеран Гражданской войны в США Джон Картер против своей воли оказывается на Марсе, где попадает в плен к воинственным четырехметровым туземцам. Картеру предстоит не только спастись самому, но и спасти принцессу Дею Торис из Гелиума.
Внимание: Справа и слева у видеоряда обрезано по 248р, что дает возможность просмотра на полный экран (без черных полос) на телевизорах с соотношением сторон 16:9 без изменения пропорций.
Более подробная информация
Формат 3D: OverUnder
Видео: AVC, High@L4.0, 1920x1080, 23.976 fps, 13,2 Мбит/сек
Аудио: Rus, AC-3, 6 каналов, 640 Кбит/сек, 48,0 КГц
Аудио: Eng, AC-3, 6 каналов, 640 Кбит/сек, 48,0 КГц
Субтитры: Русские стереоскопические на речь марсиан ( хардсаб )

Скриншоты




MediaInfo

Общее
Уникальный идентификатор : 254633220405256678123168356547312600451 (0xBF90930BF8C253298CB652A556F9C583)
Полное имя : E:\STEREO CROP\Jоhn Cаrter_(CROP)_Rip by Dag13.mkv
Формат : Matroska
Версия формата : Version 2
Размер файла : 13,7 Гбайт
Продолжительность : 2 ч. 12 м.
Общий поток : 14,8 Мбит/сек
Название фильма : Rip by Dag13
Дата кодирования : UTC 2012-10-18 09:56:33
Программа кодирования : mkvmerge v3.4.0 ('Rapunzel') сборка от May 15 2010 09:38:20
Библиотека кодирования : libebml v0.8.0 + libmatroska v0.9.0
Видео
Идентификатор : 1
Формат : AVC
Формат/Информация : Advanced Video Codec
Профиль формата : High@L4.0
Параметр CABAC формата : Да
Параметр ReFrames формата : 4 кадра
Идентификатор кодека : V_MPEG4/ISO/AVC
Продолжительность : 2 ч. 12 м.
Битрейт : 13,2 Мбит/сек
Ширина : 1920 пикселей
Высота : 1080 пикселей
Соотношение сторон : 16:9
Режим частоты кадров : Постоянный
Частота кадров : 23,976 кадра/сек
Цветовое пространство : YUV
Субдискретизация насыщенности : 4:2:0
Битовая глубина : 8 бит
Тип развёртки : Прогрессивная
Бит/(Пиксели*Кадры) : 0.266
Размер потока : 12,2 Гбайт (89%)
Заголовок : Rip by Dag13
Библиотека кодирования : x264 core 120 r2145 748fe16
Настройки программы : cabac=1 / ref=4 / deblock=1:-3:-2 / analyse=0x3:0x113 / me=umh / subme=9 / psy=1 / psy_rd=1.00:0.00 / mixed_ref=1 / me_range=16 / chroma_me=1 / trellis=1 / 8x8dct=1 / cqm=0 / deadzone=21,11 / fast_pskip=1 / chroma_qp_offset=-2 / threads=9 / sliced_threads=0 / nr=0 / decimate=1 / interlaced=0 / bluray_compat=0 / constrained_intra=0 / bframes=6 / b_pyramid=0 / b_adapt=2 / b_bias=0 / direct=3 / weightb=1 / open_gop=0 / weightp=2 / keyint=250 / keyint_min=23 / scenecut=40 / intra_refresh=0 / rc_lookahead=60 / rc=crf / mbtree=1 / crf=17.0 / qcomp=0.60 / qpmin=0 / qpmax=69 / qpstep=4 / ip_ratio=1.40 / aq=1:1.00
Язык : English
Default : Нет
Forced : Нет
Аудио #1
Идентификатор : 2
Формат : AC-3
Формат/Информация : Audio Coding 3
Расширение режима : CM (complete main)
Параметр Endianness формата : Big
Идентификатор кодека : A_AC3
Продолжительность : 2 ч. 12 м.
Вид битрейта : Постоянный
Битрейт : 640 Кбит/сек
Каналы : 6 каналов
Расположение каналов : Front: L C R, Side: L R, LFE
Частота : 48,0 КГц
Битовая глубина : 16 бит
Метод сжатия : С потерями
Размер потока : 604 Мбайт (4%)
Язык : Russian
Default : Да
Forced : Нет
Аудио #2
Идентификатор : 3
Формат : AC-3
Формат/Информация : Audio Coding 3
Расширение режима : CM (complete main)
Параметр Endianness формата : Big
Идентификатор кодека : A_AC3
Продолжительность : 2 ч. 12 м.
Вид битрейта : Постоянный
Битрейт : 640 Кбит/сек
Каналы : 6 каналов
Расположение каналов : Front: L C R, Side: L R, LFE
Частота : 48,0 КГц
Битовая глубина : 16 бит
Метод сжатия : С потерями
Размер потока : 604 Мбайт (4%)
Язык : English
Default : Нет
Forced : Нет
Доп. инфо.: С субтитрами небольшая накладка, три фразы- Нью Йорк, 1881----МЕЖДУ МИРАМИ----Застава Форт Грант, 1868 в самом начале фильма не удалены из одного ракурса, остальное все в порядке.
Остальные раздачи этого фильма (5)
Благодарности релизеру (91)

Торрент:

Статус:

Размер:

Зарегистрирован   [ 2012-10-18 14:26 ]

проверено

13.67 GB

 
 Мнение о фильме (32)

Пред.  1, 2






просто писать надо что это конверт..
Титаник и Парк Юрского периода тоже конверты. Многие реал-3Д фильмы позавидуют таким конвертам! А в Джоне Картере 3Д среднее-нормальное (никак нельзя назвать плохим).
Если качество 3Д оценивали по наличию вылетов, то Вы - очередной заблуждающийся! Вам в 5Д-аттракционы...
 

вот как раз титаник и уж тем более парк,там поистине потрясающее 3d картинка,а джона картера смотрел будто обычный 2д фильм со включенным на телике пассивным 2д-3д конвертом,и про 3d сужу не по вылетам из top girl ,а по тому же парку,где поистине 3d порадовало...
 

Фильм хороший
 

фильм нормальный спецэфекты моглибы сделать и по ярче в фильме такого масштаба!3Д вылетов практически нет!
 

фильм интересный с приключениями 3 D хотелось бы по эффектней.
 

Отличный фильм! Спасибо.
 

Я бы сказал, что постановка нормальная, для любителей Индиана Джtyc самое то.
 

отличный фильм, смотрел сегодня второй раз, оставлю в коллекции, Спасибо за релиз!
 

Мне тоже фильм очень понравился. Смотрел с удовольствием, а через пару дней пересмотрел ещё раз. Жаль, очень жаль, что продолжения не будет.
 

что конверт - надо честно указывать. атоужезаебаликулибины
 

locomotion, уважаемый, ведите себя пристойно!
 

locomotion
Для начала, в клинику! Не поможет - в "баню"!
http://www.blu-ray.com/movies/John-Carter-3D-Blu-ray/34573/
 

Страница 2 из 2

Пред.  1, 2