Торренты   
 
 

 

Б.О.Б. Очередной побег 3д / B.O.B.'s Big Break 3d (Роберт Портер / Robert Porter) [2009 г., анимация, комедия, фантастика, BDRip 1080p] OverUnder / Вертикальная стереопара

Рейтинг 3D:
3 голосов
8.3
Рейтинг фильма:
3 голосов
7.7
 
Вы должны быть авторизированы,
чтобы ставить оценки


Б.О.Б. Очередной побег / B.O.B.'s Big Break
Год выпуска: 2009
Страна: США
Жанр: анимация, комедия, фантастика
Продолжительность: 00:13:21
Перевод: Профессиональный (полное дублирование)
Русские субтитры: нет
Режиссер: Роберт Портер / Robert Porter
В ролях: Сет Роген (Боб), Кифер Сазерленд (Генерал Воякер), Уилл Арнетт (Звено), Хью Лори (Таракан), Майк Митчел (Невидимка)
Описание: День рождения — это один из самых замечательных и долгожданных праздников для каждого человека, в т. ч. и для монстров, — наших любимых героев полнометражного мультфильма «Монстры против пришельцев». Итак, Б. О. Б. справляет свой День рождения, а его неразлучные лучшие друзья Недостающее звено и Таракан Гений разрабатывают отчаянный план побега из лаборатории-темницы генерала Воякера…
Качество: BDRip
Формат: MKV
Формат 3D: OverUnder / Вертикальная стереопара
Видео кодек: x264
Аудио кодек: AC3
Видео: MPEG4 Video (H264) 1920x2160 23.98fp 13722.27 Kbps
Аудио #1: Русский, Dolby AC3 48000Hz stereo 192 Kbps DUB [VO-Production]
Аудио #2: Русский, Dolby AC3 48000Hz 6ch 448 Kbps MVO [SkyeFilmTV]
Аудио #3: Английский, Dolby AC3 48000Hz 6ch 640 Kbps

Скриншоты

MediaInfo

Format : Matroska
File size : 1.40 GiB
Duration : 13mn 21s
Overall bit rate : 15.0 Mbps
Movie name : B.O.B.s.Big.Break.3D.2009.BDRip.1080p.DualRus.Eng.-VoLoNa@CMEGroup
Encoded date : UTC 2010-07-06 14:29:34
Writing application : mkvmerge v4.1.0 ('Boiling Point') сборка от Jul 1 2010 14:37:28
Writing library : libebml v1.0.0 + libmatroska v1.0.0
Video
ID : 1
Format : AVC
Format/Info : Advanced Video Codec
Format profile : High@L5.0
Format settings, CABAC : Yes
Format settings, ReFrames : 4 frames
Muxing mode : Container profile=Unknown@5.0
Codec ID : V_MPEG4/ISO/AVC
Duration : 13mn 21s
Bit rate : 13.4 Mbps
Width : 1 920 pixels
Height : 2 160 pixels
Display aspect ratio : 0.889
Frame rate : 23.976 fps
Resolution : 8 bits
Colorimetry : 4:2:0
Scan type : Progressive
Bits/(Pixel*Frame) : 0.135
Stream size : 1.25 GiB (89%)
Writing library : x264 core 100 r1659 57b2e56
Encoding settings : cabac=1 / ref=4 / deblock=1:-1:-1 / analyse=0x3:0x113 / me=umh / subme=7 / psy=1 / psy_rd=1.00:0.15 / mixed_ref=1 / me_range=16 / chroma_me=1 / trellis=2 / 8x8dct=1 / cqm=0 / deadzone=21,11 / fast_pskip=1 / chroma_qp_offset=-3 / threads=6 / sliced_threads=0 / nr=0 / decimate=1 / interlaced=0 / constrained_intra=0 / bframes=6 / b_pyramid=0 / b_adapt=2 / b_bias=0 / direct=3 / weightb=1 / open_gop=0 / weightp=2 / keyint=250 / keyint_min=25 / scenecut=40 / intra_refresh=0 / rc_lookahead=40 / rc=crf / mbtree=1 / crf=18.0 / qcomp=0.60 / qpmin=10 / qpmax=51 / qpstep=4 / vbv_maxrate=50000 / vbv_bufsize=50000 / crf_max=0.0 / ip_ratio=1.40 / aq=2:1.00 / nal_hrd=none
Audio #1
ID : 2
Format : AC-3
Format/Info : Audio Coding 3
Format_Settings_ModeExtension : CM (complete main)
Codec ID : A_AC3
Duration : 13mn 21s
Bit rate mode : Constant
Bit rate : 192 Kbps
Channel(s) : 2 channels
Channel positions : Front: L R
Sampling rate : 48.0 KHz
Video delay : 1s 0ms
Stream size : 18.4 MiB (1%)
Title : Russian - DUB [VO-Production]
Language : Russian
Audio #2
ID : 3
Format : AC-3
Format/Info : Audio Coding 3
Format_Settings_ModeExtension : CM (complete main)
Codec ID : A_AC3
Duration : 13mn 21s
Bit rate mode : Constant
Bit rate : 448 Kbps
Channel(s) : 6 channels
Channel positions : Front: L C R, Side: L R, LFE
Sampling rate : 48.0 KHz
Video delay : 1s 0ms
Stream size : 42.8 MiB (3%)
Title : Russian - MVO [SkyeFilmTV]
Language : Russian
Audio #3
ID : 4
Format : AC-3
Format/Info : Audio Coding 3
Format_Settings_ModeExtension : CM (complete main)
Codec ID : A_AC3
Duration : 13mn 21s
Bit rate mode : Constant
Bit rate : 640 Kbps
Channel(s) : 6 channels
Channel positions : Front: L C R, Side: L R, LFE
Sampling rate : 48.0 KHz
Video delay : 1s 0ms
Stream size : 61.2 MiB (4%)
Title : English
Благодарности релизеру (0)

Торрент:

Статус:

Размер:

Зарегистрирован   [ 2010-07-06 18:54 ]

проверено

1.4 GB