Торренты   
 
 


Раскрашенная кожа 2 / Painted Skin: The Resurrection / Hua Pi 2 (Вуершан / Wuershan) [2012 г., BDrip, Anamorph OverUnder]

Рейтинг 3D:
35 голосов
6.4
Рейтинг фильма:
30 голосов
7.0
 
Вы должны быть авторизированы,
чтобы ставить оценки


Раскрашенная кожа 2
Painted Skin: The Resurrection / Hua Pi 2
Год выпуска: 2012
Страна: Китай
Жанр: Фэнтези, боевик, триллер, драма
Продолжительность: 02:11:32
Перевод:
Любительский (многоголосый закадровый) GREEN TEA
Любительский (двухголосый закадровый) den904 и DeadSno
Cубтитры: есть
Режиссер:
Вуершан / Wuershan
В ролях:
Чжоу Сюнь - Сяо Вэй, демон Лиса
Чэнь Кунь - Генерал Хо Синь
Чжао Вэй - Принцесса Цзин
Янг Ми - птичка Чеа
Фэн-Шаофенг - целитель Пан
Фэй Сян - шаман Тянь Ланг
Чэнь Тинцзя - Королева Тянь Ланг
Описание:
Чтобы стать смертным демон должен прожить на земле несколько сот лет, но и этого недостаточно, чтобы ощутить весь спектр человеческих эмоций и подлинную экзистенциальную грусть. Для получения этих бонусов демон должен найти человека, готового пожертвовать собственными чувствами и собственной бессмертной душой.--Релиз группы:

Проверено на встроенном плейере ТВ LG 42LW4500
--
Качество: BDrip
Контейнер: MKV
Формат 3D: Anamorph OverUnder / Вертикальная анаморфная стереопара
Видео: AVC / 23,976 fps / 1920х1080p / 8848 Kbps
Аудио:
Русский / 48 KHz / AC3 / 6 ch / 448 kbps (GREEN TEA)
Русский / 48 KHz / MPEG layer 3 / 128 kbps (den904 и DeadSno)
Китайский / AC3 / 48 KHz / 5.1 ch / 640 Kbps (отдельно на Narod.Ru)
Cубтитры: русские

Скриншоты

MediaInfo

Код:
Общее
Уникальный идентификатор                 : 187340447331563458117078704777994757588 (0x8CF0752DDD20E154BD340506B474E5D4)
Полное имя                               : D:\3D-RuGroup\Фильмы\PaintedSkin.TheResurrection.3D.2012.BD3DRip.Half.OU.x264.AC3.2xRus.3D-RuGroup.mkv
Формат                                   : Matroska
Версия формата                           : Version 2
Размер файла                             : 8,83 Гбайт
Продолжительность                        : 2 ч. 11 м.
Общий поток                              : 9606 Кбит/сек
Название фильма                          : Painted Skin: The Resurrection 3D rip by StarStranger release 3D-RuGroup
Дата кодирования                         : UTC 2012-12-23 12:36:32
Программа кодирования                    : mkvmerge v3.4.0 ('Rapunzel') сборка от May 15 2010 09:38:20
Библиотека кодирования                   : libebml v0.8.0 + libmatroska v0.9.0
Видео
Идентификатор                            : 1
Формат                                   : AVC
Формат/Информация                        : Advanced Video Codec
Профиль формата                          : High@L4.1
Параметр CABAC формата                   : Да
Параметр ReFrames формата                : 4 кадра
Идентификатор кодека                     : V_MPEG4/ISO/AVC
Продолжительность                        : 2 ч. 11 м.
Битрейт                                  : 8839 Кбит/сек
Ширина                                   : 1920 пикселей
Высота                                   : 1080 пикселей
Соотношение сторон                       : 16:9
Режим частоты кадров                     : Постоянный
Частота кадров                           : 23,976 кадра/сек
Цветовое пространство                    : YUV
Субдискретизация насыщенности            : 4:2:0
Битовая глубина                          : 8 бит
Тип развёртки                            : Прогрессивная
Бит/(Пиксели*Кадры)                      : 0.178
Размер потока                            : 8,12 Гбайт (92%)
Библиотека кодирования                   : x264 core 128 r2216 198a7ea
Настройки программы                      : cabac=1 / ref=4 / deblock=1:-3:-3 / analyse=0x3:0x133 / me=umh / subme=9 / psy=1 / psy_rd=1.00:0.15 / mixed_ref=1 / me_range=16 / chroma_me=1 / trellis=2 / 8x8dct=1 / cqm=0 / deadzone=21,11 / fast_pskip=0 / chroma_qp_offset=-3 / threads=3 / lookahead_threads=1 / sliced_threads=0 / nr=0 / decimate=1 / interlaced=0 / bluray_compat=0 / constrained_intra=0 / bframes=6 / b_pyramid=2 / b_adapt=2 / b_bias=0 / direct=3 / weightb=1 / open_gop=0 / weightp=2 / keyint=250 / keyint_min=23 / scenecut=40 / intra_refresh=0 / rc_lookahead=40 / rc=crf / mbtree=1 / crf=18.0 / qcomp=0.70 / qpmin=0 / qpmax=69 / qpstep=4 / vbv_maxrate=50000 / vbv_bufsize=50000 / crf_max=0.0 / nal_hrd=none / ip_ratio=1.40 / aq=1:0.70
Default                                  : Нет
Forced                                   : Нет
Аудио #1
Идентификатор                            : 2
Формат                                   : AC-3
Формат/Информация                        : Audio Coding 3
Расширение режима                        : CM (complete main)
Параметр Endianness формата              : Big
Идентификатор кодека                     : A_AC3
Продолжительность                        : 2 ч. 11 м.
Вид битрейта                             : Постоянный
Битрейт                                  : 448 Кбит/сек
Каналы                                   : 6 каналов
Расположение каналов                     : Front: L C R, Side: L R, LFE
Частота                                  : 48,0 КГц
Битовая глубина                          : 16 бит
Метод сжатия                             : С потерями
Размер потока                            : 422 Мбайт (5%)
Заголовок                                : MVO
Язык                                     : Russian
Default                                  : Нет
Forced                                   : Нет
Аудио #2
Идентификатор                            : 3
Формат                                   : MPEG Audio
Версия формата                           : Version 1
Профиль формата                          : Layer 3
Режим                                    : Joint stereo
Расширение режима                        : MS Stereo
Идентификатор кодека                     : A_MPEG/L3
Идентификатор кодека/Подсказка           : MP3
Продолжительность                        : 2 ч. 11 м.
Вид битрейта                             : Постоянный
Битрейт                                  : 128 Кбит/сек
Каналы                                   : 2 канала
Частота                                  : 48,0 КГц
Метод сжатия                             : С потерями
Размер потока                            : 120 Мбайт (1%)
Заголовок                                : DVO (den904, DeadSno)
Язык                                     : Russian
Default                                  : Нет
Forced                                   : Нет
Текст
Идентификатор                            : 4
Формат                                   : UTF-8
Идентификатор кодека                     : S_TEXT/UTF8
Идентификатор кодека/Информация          : UTF-8 Plain Text
Язык                                     : Russian
Default                                  : Нет
Forced                                   : Нет
Меню
00:00:00.000                             : :01
00:09:39.370                             : :02
00:20:30.813                             : :03
00:35:50.273                             : :04
00:44:54.525                             : :05
00:56:31.930                             : :06
01:06:04.377                             : :07
01:18:04.430                             : :08
01:28:24.633                             : :09
01:40:44.121                             : :10
01:50:44.263                             : :11
02:02:58.371                             : :12
23.12.2012 - Релиз обновлён - добавлен Любительский (многоголосый закадровый) перевод от GREEN TEA. Желающие, скачайте заново торрент-файл.
Благодарности релизеру (57)

Торрент:

Статус:

Размер:

Зарегистрирован   [ 2012-12-23 17:31 ]

проверено

8.83 GB

 
 Мнение о фильме (25)

Пред.  1, 2






StarStranger, просьба раздать ( http://torrents3d.ru/article/3297/torrent/#comments_list )
уже 16 пользователей имеют неполный фильм, раздал 30гб.
 

Юрист60, Вы прочитали мой комментарий перед Вашим?
 

Кто знает, что за цифры в рамочке вверху справа - 8.83GB -0 -0 ? разъясните новичку.
 

Юрист60,
8.83GB - вес релиза
ну а нули - сколько человек раздает и сколько качает...но она не работает
 

Amstaff, а пофиг, когда увидел, тогда и написал. Главное выговорился))))
 

Страница 2 из 2

Пред.  1, 2