Торренты   
 
 


Призрачный гонщик 2 (3D) / Ghost Rider: Spirit of Vengeance (3D) (Марк Невелдайн, Брайан Тейлор / Mark Neveldine, Brian Taylor) [2011, BDrip, half1080p, Anamorph SideBySide]

Рейтинг 3D:
35 голосов
6.5
Рейтинг фильма:
36 голосов
6.7
 
Вы должны быть авторизированы,
чтобы ставить оценки


Призрачный гонщик 2 / Ghost Rider: Spirit of Vengeance
Год выпуска: 2011
Страна: США, ОАЭ (Columbia Pictures, Hyde Park Entertainment, Imagenation Abu Dhabi, Crystal Sky, Marvel Knights)
Жанр: Фэнтези, Боевик, Триллер
Продолжительность: 01:35:31
Перевод: Профессиональный (полное дублирование)
Режиссеры: Марк Невелдайн, Брайан Тейлор / Mark Neveldine, Brian Taylor
В ролях: Николас Кейдж, Кирен Хайдз, Виоланте Плачидо, Джонни Витуорт, Кристофер Ламберт, Идрис Эльба, Фергус Риордан, Спенсер Уидлинг, Сорин Тофан, Яцек Коман, Энтони Хэд
Роли дублировали: Александр Рахленко, Тимофей Спивак, Татьяна Шитова, Александр Гаврилин, Андрей Градов, Владислав Копп, Иван Дахненко
Описание: Действие разворачивается на задворках Восточной Европы, где главный герой Джонни Блэйз безуспешно пытается справиться со своим проклятием. Его принимает на работу некая секта, которая пытается заполучить дьявола в тот момент, когда он пытается вселиться в тело его смертного сына на дне рождения мальчика.
Формат 3D: Anamorph SideBySide
Видео: AVC / 23,976 fps / 1920х1080p / 8975 Kbps
Аудио №1: Русский / AC3 / 48 KHz / 5.1 ch / 640 Kbps
Аудио №2: Английский / AC3 / 48 KHz / 5.1 ch / 640 Kbps

MediaInfo

General
Unique ID : 195057172070212089788701188035829227082 (0x92BEA515443B5B94BB06F6D51DCADE4A)
Complete name : Ghost Rider. Spirit of Vengeance (3D) [Призрачный гонщик 2 (3D)] (2011) DUB hSbS 1080p.mkv
Format : Matroska
Format version : Version 2
File size : 6.98 GiB
Duration : 1h 35mn
Overall bit rate : 10.5 Mbps
Encoded date : UTC 2012-10-31 08:03:48
Writing application : mkvmerge v5.8.0 ('No Sleep / Pillow') built on Sep 2 2012 15:37:04
Writing library : libebml v1.2.3 + libmatroska v1.3.0
Video
ID : 1
Format : AVC
Format/Info : Advanced Video Codec
Format profile : High@L4.1
Format settings, CABAC : Yes
Format settings, ReFrames : 4 frames
Codec ID : V_MPEG4/ISO/AVC
Duration : 1h 35mn
Bit rate : 8 977 Kbps
Width : 1 920 pixels
Height : 1 080 pixels
Display aspect ratio : 16:9
Frame rate : 23.976 fps
Color space : YUV
Chroma subsampling : 4:2:0
Bit depth : 8 bits
Scan type : Progressive
Bits/(Pixel*Frame) : 0.181
Stream size : 5.99 GiB (86%)
Writing library : x264 core 116 r2074 2641b9e
Encoding settings : cabac=1 / ref=4 / deblock=1:-3:-3 / analyse=0x3:0x113 / me=umh / subme=9 / psy=1 / psy_rd=1.00:0.15 / mixed_ref=1 / me_range=32 / chroma_me=1 / trellis=2 / 8x8dct=1 / cqm=0 / deadzone=21,11 / fast_pskip=1 / chroma_qp_offset=-3 / threads=12 / sliced_threads=0 / nr=0 / decimate=1 / interlaced=0 / bluray_compat=0 / constrained_intra=0 / bframes=6 / b_pyramid=2 / b_adapt=2 / b_bias=0 / direct=3 / weightb=1 / open_gop=0 / weightp=2 / keyint=250 / keyint_min=23 / scenecut=40 / intra_refresh=0 / rc_lookahead=60 / rc=crf / mbtree=1 / crf=17.0 / qcomp=0.60 / qpmin=0 / qpmax=69 / qpstep=4 / vbv_maxrate=40000 / vbv_bufsize=40000 / crf_max=0.0 / nal_hrd=none / ip_ratio=1.40 / aq=1:0.70
Default : Yes
Forced : Yes
Audio #1
ID : 2
Format : AC-3
Format/Info : Audio Coding 3
Mode extension : CM (complete main)
Codec ID : A_AC3
Duration : 1h 35mn
Bit rate mode : Constant
Bit rate : 640 Kbps
Channel(s) : 6 channels
Channel positions : Front: L C R, Side: L R, LFE
Sampling rate : 48.0 KHz
Bit depth : 16 bits
Compression mode : Lossy
Stream size : 437 MiB (6%)
Title : Russian
Language : Russian
Default : Yes
Forced : Yes
Audio #2
ID : 3
Format : AC-3
Format/Info : Audio Coding 3
Mode extension : CM (complete main)
Codec ID : A_AC3
Duration : 1h 35mn
Bit rate mode : Constant
Bit rate : 640 Kbps
Channel(s) : 6 channels
Channel positions : Front: L C R, Side: L R, LFE
Sampling rate : 48.0 KHz
Bit depth : 16 bits
Compression mode : Lossy
Stream size : 437 MiB (6%)
Title : English
Language : English
Default : No
Forced : No

Скриншоты




Анимированные скриншоты для оценки 3Д-эффекта:



Фильм перезалит 31.10.2012 - убрано сжатие заголовков.
Просьба перекачать торрент.
Остальные раздачи этого фильма (5)
Благодарности релизеру (13)

Торрент:

Статус:

Размер:

Зарегистрирован   [ 2012-10-31 12:44 ]

проверено

6.98 GB

 
 Мнение о фильме (19)





Спасибо!
ПС: Внесу "ложку дегтя" про 3Д. Это чтоб не сильно обломались в предвкушении 3Д пиршества:) Фильм 2Д-3Д конвертация, причем посредственная.

GIF анимация

Ближние предметы слева отдельно, руки немного отделены, всё остальное плоскость утопленная в экран.
Ещё пример.

GIF анимация

 

Мдааа… Неужели так сложно снимать на двуглазую камеру? Постоянно одни конверты…
 

а мне подруга говорила, в кино ходила, что прям весь фильм все в 3д. Чуть ли блин не аватар, так хвалила... Скоро узнаем.
 

KoDi
Ну стерео стереу рознь:) Формально оно есть, даже в галимом фейке, но с какой дискретизацией/детальностью? И соответствует ли реальности? Снятое двумя камерами имеет кол-во "слоев" или уровней дальше/ближе в объеме как кол-во пикселей в картинке, правдоподобность расположения предметов в объеме 100%, в конвертации по разному, от нескольких десятков слоев, до 2-3, правдоподобность объема от балды/руки. Если в ч/б фильме раскрасить одним цветом одну деталь, то тоже формально цветное кино, два три предмета, ещё и неправильными красками и равномерно, без полутонов, теней - аналогично плохой 2Д конвертации где сам объект хоть и отдельно в объеме, но плоский.
Возможно знакомая так реагировала на эффекты комп. графики которые обычно в честном 3Д и обычно с вылИтами.
 

Zagruzin , исчерпывающе , спасибо ;)
 

Я помню показывал ей пираты карибского моря, так их вообще что с очками что без можно было смотреть (что она и делала). Значит есть с чем ей сравнить ))
 

Спасибо большое! Посмотрел, 3d эффектов столько же сколько и в Джоне Картере, короче нет их там практически.
 

Спасибо большое! Посмотрел, 3d эффектов столько же сколько и в Джоне Картере, короче нет их там практически.
Джон Картер и без 3Д красивый ( говорю так т.к 3д телек только собираюсь покупать, а в 3д (качественный вообще улет должен быть), а ПГ 2 мягко говоря на любителя, да и таких сцен ради которых только в 3Д нет, это не аватар, когда скачав фильм, пролистав его удаляешь и идешь в кинотеатр.
 

фильм гавно, зря ждал 3Д, нада было экранку раньше посмотреть
 

Рип очень хороший. А 3D посредственное. Очень заметно на задних планах. Впечатление, как будто актеры играют на фоне фотообоев.
 

Рип очень хороший. А 3D посредственное. Очень заметно на задних планах. Впечатление, как будто актеры играют на фоне фотообоев.
3D посредственное это как???типа среднее???ну тогда просто хорошее а не "очень"...
 

Ребята, 3д просто отвратительное! :)
 

Нормальное 3д. Смотрел и хуже.
 

Дерьмо редкое.
 

Спасибо за раздачу. 3Д в некоторых сценах нормальное. В основном не ощущается. Эффекты неплохие, но сам фильм на бооольшого любителя. Можно посмотреть разок.
 

До Аватара не дотягивает, но в общем можно посмотреть, сюжет конечно натянут.
 

норма
 

нормальный фильм
 

СПАСИБО ЗА РЕЛИЗ.РЕЯТА ,А ГДЕ СИДЫ?ДАЙТЕ КАЧНУТЬ !!!В колекцию один из любимых релизЁров Dag13 плиз