Торренты   
 
 


Люди в черном 3 / Men in Black 3 (Барри Зонненфельд) [2012, BDrip, half1080p, Anamorph SideBySide]

Рейтинг 3D:
102 голосов
6.7
Рейтинг фильма:
104 голосов
7.5
 
Вы должны быть авторизированы,
чтобы ставить оценки


Люди в черном 3 / Men in Black 3
Год выпуска: 2012
Страна: США (Amblin Entertainment, Hemisphere Media Capital и др.)
Жанр: фантастика, боевик, комедия, приключения
Продолжительность: 01:45:38
Перевод: Профессиональный (полное дублирование)
Режиссер: Барри Зонненфельд
В ролях: Уилл Смит (Agent J), Джош Бролин (Young Agent K), Томми Ли Джонс (Agent K), Джемейн Клемент (Boris The Animal), Майкл Стулбарг (Griffin), Эмма Томпсон (Agent O), Элис Ив (Young Agent O), Майк Колтер (Colonel), Билл Хэйдер (Andy Warhol), Майкл Чернус (Jeffrey Price), Николь Шерзингер (Boris's Girlfriend), Дэвид Раш (Agent X) и др.
Роли дублировали:
Станислав Концевич, Иван Паршин, Сергей Паршин, Вадим Гущин, Олег Куликович, Светлана Шейченко, Виктория Слуцкая, Дмитрий Стрелков, Елена Шульман и др.
Описание: Агент Джей узнает, что никакого защитного галактического щита, способного отразить иноземный удар, не существует. Агент Кей не построил его, потому что был убит в 1969 году. Агент Джей должен совершить путешествие во времени, чтобы спасти Землю и жизнь напарника.
Доп. информация: Замена фаб-рипа
Формат 3D: Anamorph SideBySide
Порядок ракурсов: Параллельная пара
Видео: AVC / 23,976 fps / 1920х1080p / 10.7 Mbps
Аудио 1: Русский / AC3 / 48 KHz / 5.1 ch / 640 Kbps
Аудио 2: Английский / AC3 / 48 KHz / 5.1 ch / 640 Kbps

MediaInfo

General
Unique ID : 213584046021230169325149657551644147685 (0xA0AECA7E2943398D8A6BC428BB483FE5)
Complete name : Men in Black 3 3D [Люди в черном 3 3D] (2012) DUB hSbS 1080p.mkv
Format : Matroska
Format version : Version 2
File size : 9.03 GiB
Duration : 1h 45mn
Overall bit rate : 12.2 Mbps
Encoded date : UTC 2012-10-23 04:24:13
Writing application : mkvmerge v5.8.0 ('No Sleep / Pillow') built on Sep 2 2012 15:37:04
Writing library : libebml v1.2.3 + libmatroska v1.3.0
Video
ID : 1
Format : AVC
Format/Info : Advanced Video Codec
Format profile : High@L4.1
Format settings, CABAC : Yes
Format settings, ReFrames : 4 frames
Codec ID : V_MPEG4/ISO/AVC
Duration : 1h 45mn
Bit rate : 10.7 Mbps
Width : 1 920 pixels
Height : 1 080 pixels
Display aspect ratio : 16:9
Frame rate : 23.976 fps
Color space : YUV
Chroma subsampling : 4:2:0
Bit depth : 8 bits
Scan type : Progressive
Bits/(Pixel*Frame) : 0.215
Stream size : 7.90 GiB (88%)
Writing library : x264 core 128 r2216 198a7ea
Encoding settings : cabac=1 / ref=4 / deblock=1:-3:-3 / analyse=0x3:0x113 / me=umh / subme=9 / psy=1 / psy_rd=1.00:0.15 / mixed_ref=1 / me_range=32 / chroma_me=1 / trellis=2 / 8x8dct=1 / cqm=0 / deadzone=21,11 / fast_pskip=1 / chroma_qp_offset=-3 / threads=12 / lookahead_threads=2 / sliced_threads=0 / nr=0 / decimate=1 / interlaced=0 / bluray_compat=0 / constrained_intra=0 / bframes=4 / b_pyramid=2 / b_adapt=2 / b_bias=0 / direct=3 / weightb=1 / open_gop=0 / weightp=2 / keyint=250 / keyint_min=23 / scenecut=40 / intra_refresh=0 / rc_lookahead=60 / rc=crf / mbtree=1 / crf=18.0 / qcomp=0.60 / qpmin=0 / qpmax=69 / qpstep=4 / vbv_maxrate=40000 / vbv_bufsize=40000 / crf_max=0.0 / nal_hrd=none / ip_ratio=1.40 / aq=1:0.70
Default : Yes
Forced : No
Audio #1
ID : 2
Format : AC-3
Format/Info : Audio Coding 3
Mode extension : CM (complete main)
Codec ID : A_AC3
Duration : 1h 45mn
Bit rate mode : Constant
Bit rate : 640 Kbps
Channel(s) : 6 channels
Channel positions : Front: L C R, Side: L R, LFE
Sampling rate : 48.0 KHz
Bit depth : 16 bits
Compression mode : Lossy
Stream size : 484 MiB (5%)
Title : Дубляж
Language : Russian
Default : Yes
Forced : Yes
Audio #2
ID : 3
Format : AC-3
Format/Info : Audio Coding 3
Mode extension : CM (complete main)
Codec ID : A_AC3
Duration : 1h 45mn
Bit rate mode : Constant
Bit rate : 640 Kbps
Channel(s) : 6 channels
Channel positions : Front: L C R, Side: L R, LFE
Sampling rate : 48.0 KHz
Bit depth : 16 bits
Compression mode : Lossy
Stream size : 484 MiB (5%)
Title : Оригинал
Language : English
Default : No
Forced : No

Скриншоты




Анимированные скриншоты для оценки 3Д-эффекта



Остальные раздачи этого фильма (4)
Благодарности релизеру (31)

Торрент:

Статус:

Размер:

Зарегистрирован   [ 2012-10-23 10:45 ]

проверено

9.03 GB

 
 Мнение о фильме (21)

1, 2  След.






Что с вылетами?
 

Что с вылетами?
НИЧЕГО
 

да есть там вылеты все ок !
 

Смотрел в кинотеатре. Фильм понравился. Спасибо большое !!!
 

Ну вылетов негусто и не сильно, не Аватар конечно, но объем нормальный, короче - реальное честное 3Д (ИМХО). Спецэффектов масса, очень неплохо. Сюжет одноразовый, и Уилл Смит клоун какой то, А Томми Ли "мощно постарел", но в целом хорошо, посмотреть очень даже стоит. Релизеру гранд респект и дальнейших творческих успехов. Спасибо огромное!
 

3Д очень достойное, объем хорошо чувствуется, да и сам фильм на уровне, получше 2-ой части.
 

фильм суперрррррр
 

3D супер как и сам фильм
 

Не плохо не плохо
 

Спасибо супперецкий кино.
 

скачал давно а посмотреть все некогда
 

смотреть обязательно
 

3D нормальный. Вылетов не так много, но есть хороший объём. Сюжет в норме. Рекомендую к просмотру.
 

фильмец,бомба особено в 3д
 

мне фильм понравился
 

Фильм достойный, про кач данного релиза сказать пока немогу - не смотрел (нехватка времени) после просмотра отпишусь. СПС за релиз.
 

фильм хорош
 

Вылетов почти нет но обьем хороший. Сам фильм средненький на мой взгляд но разок посмотреть можно.
 

Спасибо
 

Спасибо! Фильм хороший и 3д норм)))
 

Страница 1 из 2

1, 2  След.