Торренты   
 
 

 

Феи: Тайна зимнего леса / Secret of the Wings ( Роберт Ганнавей, Пегги Холмс) [2012 г., Anamorph Half OverUnder]

Рейтинг 3D:
7 голосов
8.3
Рейтинг фильма:
8 голосов
8.1
 
Вы должны быть авторизированы,
чтобы ставить оценки


Феи: Тайна зимнего леса / Secret of the Wings
Год выпуска: 2012
Страна: США, Blue Sky Studios
Жанр: Мультфильм, фэнтези, семейный
Продолжительность: 01:15:03
Перевод: Любительский двухголосый
Режиссер: Роберт Ганнавей, Пегги Холмс
В ролях: Тимоти Далтон, Люси Хейл, Меган Хилти, Анжелика Хьюстон, Мэтт Лантер, Джесси МакКартни, Мэй Уитман, Люси Лью, Рэйвен Дебби Райан
Описание: Динь-Динь и ее подруги всегда боялись пересекать границу с Зимним лесом, ведь существует поверье, что там очень опасно. В один прекрасный день Динь-Динь, сгорая от любопытства, подходит вплотную к лесу, и ее крылья неожиданно начинают блестеть и переливаться. Завороженная Динь, желая узнать тайну волшебных крыльев, кутается в теплое пальто и отправляется в глубь таинственного леса, где ее ждет неожиданное открытие…
Формат 3D: Anamorph Half OverUnder
Видео: MPEG-4 AVC, 9200 Кбит/с, 1920x1080, 23.976 кадр/с
Аудио: Русский (AC3, 6 ch, 384 Кбит/с)

Скриншоты



Анимированые скриншоты, открываются по клику ( для оценки 3Д )

Инфо

General
Unique ID : 188268948225714142124140896564070187399 (0x8DA347CEC1EC7A1694A8DD6C36AA0187)
Complete name : M:\Кино3Д\Феи.Тайна зимнего леса.3D.2012.x264.BDRip.1080p.HOU.3Drip.mkv
Format : Matroska
Format version : Version 2
File size : 5.03 GiB
Duration : 1h 15mn
Overall bit rate : 9 584 Kbps
Movie name : 3DRip-by-kinozal
Encoded date : UTC 2012-10-23 07:35:35
Writing application : mkvmerge v3.4.0 ('Rapunzel') сборка от May 15 2010 09:38:20
Writing library : libebml v0.8.0 + libmatroska v0.9.0
Video
ID : 1
Format : AVC
Format/Info : Advanced Video Codec
Format profile : High@L4.1
Format settings, CABAC : Yes
Format settings, ReFrames : 4 frames
Codec ID : V_MPEG4/ISO/AVC
Duration : 1h 15mn
Bit rate : 9 200 Kbps
Width : 1 920 pixels
Height : 1 080 pixels
Display aspect ratio : 16:9
Frame rate : 23.976 fps
Color space : YUV
Chroma subsampling : 4:2:0
Bit depth : 8 bits
Scan type : Progressive
Bits/(Pixel*Frame) : 0.185
Stream size : 4.72 GiB (94%)
Title : 3DRip-by-kinozal
Writing library : x264 core 128 r2216 198a7ea
Encoding settings : cabac=1 / ref=4 / deblock=1:-2:-2 / analyse=0x3:0x133 / me=esa / subme=9 / psy=1 / psy_rd=0.60:0.00 / mixed_ref=1 / me_range=32 / chroma_me=1 / trellis=1 / 8x8dct=1 / cqm=0 / deadzone=21,11 / fast_pskip=0 / chroma_qp_offset=-2 / threads=6 / lookahead_threads=1 / sliced_threads=0 / nr=0 / decimate=1 / interlaced=0 / bluray_compat=0 / constrained_intra=0 / bframes=6 / b_pyramid=2 / b_adapt=2 / b_bias=0 / direct=3 / weightb=1 / open_gop=0 / weightp=2 / keyint=250 / keyint_min=23 / scenecut=40 / intra_refresh=0 / rc=2pass / mbtree=0 / bitrate=9200 / ratetol=1.0 / qcomp=0.60 / qpmin=0 / qpmax=69 / qpstep=4 / cplxblur=20.0 / qblur=0.5 / ip_ratio=1.40 / pb_ratio=1.30 / aq=1:0.80
Language : English
Default : No
Forced : No
Audio
ID : 2
Format : AC-3
Format/Info : Audio Coding 3
Mode extension : CM (complete main)
Format settings, Endianness : Big
Codec ID : A_AC3
Duration : 1h 15mn
Bit rate mode : Constant
Bit rate : 384 Kbps
Channel(s) : 6 channels
Channel positions : Front: L C R, Side: L R, LFE
Sampling rate : 48.0 KHz
Bit depth : 16 bits
Compression mode : Lossy
Stream size : 206 MiB (4%)
Title : 3DRip-by-kinozal
Language : Russian
Default : Yes
Forced : No
Menu
00:00:00.000 : en:00:00:00.000
00:05:53.019 : en:00:05:53.019
00:09:04.627 : en:00:09:04.627
00:14:10.516 : en:00:14:10.516
00:20:32.481 : en:00:20:32.481
00:28:17.404 : en:00:28:17.404
00:34:46.209 : en:00:34:46.209
00:40:26.466 : en:00:40:26.466
00:48:07.134 : en:00:48:07.134
00:53:50.686 : en:00:53:50.686
01:00:37.175 : en:01:00:37.175
01:07:47.563 : en:01:07:47.563
Благодарности релизеру (13)

Торрент:

Статус:

Размер:

Зарегистрирован   [ 2012-10-23 12:24 ]

поглощено

5.03 GB

 
 Мнение о фильме (2)





Такой мультик детям понравится! Красивый , красочный и 3D отлично. Спасибо!
 

Поглощено http://torrents3d.ru/viewtopic.php?t=3546 с лицензионным звуком.