Торренты   
 
 


IMAX: Приключение в Большом каньоне: Река в опасности / IMAX: Grand Canyon Adventure: River at Risk (Грег МакГилливрей) [2008 г., Anamorph OverUnder]

Рейтинг 3D:
4 голосов
5.0
Рейтинг фильма:
2 голосов
6.0
 
Вы должны быть авторизированы,
чтобы ставить оценки


IMAX: Приключение в Большом каньоне: Река в опасности / IMAX: Grand Canyon Adventure: River at Risk
Год выпуска: 2008
Страна: США, IMAX
Жанр: Документальный, научно-познавательный
Продолжительность: 00:44:48
Перевод: Профессиональный (двухголосый), профессиональный (одноголосый)
Режиссер: Грег МакГилливрей
В ролях: Уэйд Дэвис, Никки Келли, Роберт Редфорд, Шена Ватахомиге
Описание: Мощный фильм от создателей «Эверест», рассказывающий об угрозе, нависшей над одним из главных пейзажных символов Америки. Вы увидите великую реку Колорадо, которая напомнит нам о самой гнетущей современной проблеме окружающей среды – нарастающая нехватка пресной воды во всем мире. Присоединитесь к адвокатам, занимающимся защитой окружающей среды, - Роберту Ф. Кеннеди Мл. и Уэйду Дэвису и их дочерям, путешествующим в глубину Большого Каньона вниз по течению реки, протекающей сквозь него. У вас участиться пульса, когда вы увидите захватывающую поездку по реке через стремительные пороги и поразительные каньоны. С помощью сногсшибательных фотографий и съемок с воздуха новоявленные кинематографисты попытаются захватить всю красоту реки Колорадо и Большого Каньона.
Формат 3D: Anamorph OverUnder
Видео: MPEG-4 AVC, 13.0 Мбит/с, 1920x1080, 23.976 кадр/с
Аудио: Русский (AC3, 6 ch, 640 Кбит/с), (AC3, 6 ch, 448 Кбит/с), (DTS, 6 ch, 755 Кбит/c)

Скриншоты


Инфо-файл

General
Unique ID : 193951033450287563978384260006841666059 (0x91E99C3D0EEDA0B8851040CE5E17CA0B)
Complete name : M:\Кино3Д\Приключение в Большом каньоне. Река в опасностию.3D.2008.x264.BDRip.1080p.HOU.3Drip.mkv
Format : Matroska
Format version : Version 2
File size : 4.73 GiB
Duration : 44mn 36s
Overall bit rate : 15.2 Mbps
Movie name : 3DRip-by-kinozal
Encoded date : UTC 2012-10-23 06:53:19
Writing application : mkvmerge v3.4.0 ('Rapunzel') сборка от May 15 2010 09:38:20
Writing library : libebml v0.8.0 + libmatroska v0.9.0
Video
ID : 1
Format : AVC
Format/Info : Advanced Video Codec
Format profile : High@L4.1
Format settings, CABAC : Yes
Format settings, ReFrames : 4 frames
Codec ID : V_MPEG4/ISO/AVC
Duration : 44mn 36s
Bit rate : 13.0 Mbps
Width : 1 920 pixels
Height : 1 080 pixels
Display aspect ratio : 16:9
Frame rate : 23.976 fps
Color space : YUV
Chroma subsampling : 4:2:0
Bit depth : 8 bits
Scan type : Progressive
Bits/(Pixel*Frame) : 0.262
Stream size : 4.06 GiB (86%)
Title : 3DRip-by-kinozal
Writing library : x264 core
Default : Yes
Forced : No
Color primaries : BT.709-5, BT.1361, IEC 61966-2-4, SMPTE RP177
Transfer characteristics : BT.709-5, BT.1361
Matrix coefficients : BT.709-5, BT.1361, IEC 61966-2-4 709, SMPTE RP177
Audio #1
ID : 2
Format : AC-3
Format/Info : Audio Coding 3
Mode extension : CM (complete main)
Format settings, Endianness : Big
Codec ID : A_AC3
Duration : 44mn 36s
Bit rate mode : Constant
Bit rate : 640 Kbps
Channel(s) : 6 channels
Channel positions : Front: L C R, Side: L R, LFE
Sampling rate : 48.0 KHz
Bit depth : 16 bits
Compression mode : Lossy
Stream size : 204 MiB (4%)
Title : 3DRip-by-kinozal
Language : Russian
Default : Yes
Forced : No
Audio #2
ID : 3
Format : AC-3
Format/Info : Audio Coding 3
Mode extension : CM (complete main)
Format settings, Endianness : Big
Codec ID : A_AC3
Duration : 44mn 36s
Bit rate mode : Constant
Bit rate : 448 Kbps
Channel(s) : 6 channels
Channel positions : Front: L C R, Side: L R, LFE
Sampling rate : 48.0 KHz
Bit depth : 16 bits
Compression mode : Lossy
Stream size : 143 MiB (3%)
Title : 3DRip-by-kinozal
Language : Russian
Default : No
Forced : No
Audio #3
ID : 4
Format : DTS
Format/Info : Digital Theater Systems
Codec ID : A_DTS
Duration : 44mn 36s
Bit rate mode : Constant
Bit rate : 755 Kbps
Channel(s) : 6 channels
Channel positions : Front: L C R, Side: L R, LFE
Sampling rate : 48.0 KHz
Bit depth : 16 bits
Compression mode : Lossy
Stream size : 241 MiB (5%)
Language : Russian
Default : No
Forced : No
Menu
00:00:00.000 : en:(01)00:00:00:000
00:03:16.029 : en:(02)00:03:16:029
00:05:24.324 : en:(03)00:05:24:324
00:07:10.638 : en:(04)00:07:10:638
00:11:16.050 : en:(05)00:11:16:050
00:13:47.910 : en:(06)00:13:47:910
00:15:32.765 : en:(07)00:15:32:765
00:17:42.352 : en:(08)00:17:42:352
00:19:42.472 : en:(09)00:19:42:472
00:23:30.409 : en:(10)00:23:30:409
00:26:33.925 : en:(11)00:26:33:925
00:30:06.638 : en:(12)00:30:06:638
00:32:56.975 : en:(13)00:32:56:975
00:37:39.590 : en:(14)00:37:39:590
00:38:17.336 : en:(15)00:38:17:336
00:40:01.565 : en:(16)00:40:01:565
00:40:55.870 : en:(17)00:40:55:870
00:42:09.527 : en:(18)00:42:09:527
00:44:36.340 : en:(19)00:44:36:340
Благодарности релизеру (4)

Торрент:

Статус:

Размер:

Зарегистрирован   [ 2012-10-23 12:29 ]

* не проверено

4.73 GB