Торренты   
 
 

 

Мадагаскар 3 / Madagascar 3: Europe's Most Wanted (Эрик Дарнелл, Том МакГрат, Конрад Вернон) [2012 г., 1080p Anamorph OverUnder]

Рейтинг 3D:
282 голосов
9.2
Рейтинг фильма:
277 голосов
8.6
 
Вы должны быть авторизированы,
чтобы ставить оценки


Мадагаскар 3 / Madagascar 3: Europe's Most Wanted
Год выпуска: 2012
Страна: США
Жанр: Мультфильм, комедия, приключения, семейный
Продолжительность: 01:33:24
Перевод: Профессиональный (полное дублирование), лицензия
Режиссер: Эрик Дарнелл, Том МакГрат, Конрад Вернон
В ролях: Бен Стиллер, Саша Барон Коэн, Дэвид Швиммер, Фрэнсис МакДорманд, Крис Рок, Джада Пинкетт Смит, Шерри Шеперд, Седрик «Развлекатель», Энди Рихтер, Андре Бенджамин, Фрэнк Уэлкер, Том МакГрат, Джессика Честейн, Брайан Крэнстон, Мартин Шорт, Крис Миллер, Кристофер Найтс, Конрад Вернон, Винни Джонс, Стив Джонс, Ник Флетчер, Паз Вега, Дэнни Джейкобс, Дэн О`Коннор, Эрик Дарнелл, Стивен Кеарин, Эмили Нордвинд
Описание: Лев Алекс, зебра Марти, жираф Мелман и бегемотиха Глория присоединяются к бродячему цирку, в надежде вернуться в Нью-Йорк.
Формат 3D: Anamorph OverUnder
Видео: MPEG4 AVC, 13.5 Мбит/с, , 1920x1080, 23.976 кадр/с
Аудио: Русский (AC3, 6 ch, 640 Кбит/с),
Аудио: Английский (AC3, 6 ch, 640 Кбит/с)
Добавлена русская аудиодорожка 5.1 с лицензии (синхронизирована под рип)

Скриншоты


MediaInfo

=== General ===
Unique ID : 200254220945053053331367939132853138604 (0x96A78F60250A5447BB4B3EB3631934AC)
Complete name : E:\Фильмы HD\Мадагаскар-3 3D (2012).mkv
Format : Matroska
Format version : Version 2
File size : 9.52 GiB
Duration : 1h 33mn
Overall bit rate : 14.6 Mbps
Encoded date : UTC 2012-10-23 20:27:48
Writing application : mkvmerge v5.8.0 ('No Sleep / Pillow') built on Sep 2 2012 15:37:04
Writing library : libebml v1.2.3 + libmatroska v1.3.0
=== Video ===
ID : 1
Format : AVC
Format/Info : Advanced Video Codec
Format profile : High@L4.1
Format settings, CABAC : Yes
Format settings, ReFrames : 4 frames
Codec ID : V_MPEG4/ISO/AVC
Duration : 1h 33mn
Bit rate : 13.5 Mbps
Width : 1 920 pixels
Height : 1 080 pixels
Display aspect ratio : 16:9
Frame rate : 23.976 fps
Color space : YUV
Chroma subsampling : 4:2:0
Bit depth : 8 bits
Scan type : Progressive
Bits/(Pixel*Frame) : 0.272
Stream size : 8.62 GiB (91%)
Title : Madagascar 3: Europe's Most Wanted (rip by z-man, sync/mix by tnrprog)
Writing library : x264 core 128 r2216 198a7ea
Encoding settings : cabac=1 / ref=4 / deblock=1:-3:-3 / analyse=0x3:0x113 / me=tesa / subme=10 / psy=1 / psy_rd=0.80:0.00 / mixed_ref=1 / me_range=32 / chroma_me=1 / trellis=2 / 8x8dct=1 / cqm=0 / deadzone=21,11 / fast_pskip=1 / chroma_qp_offset=-2 / threads=12 / lookahead_threads=2 / sliced_threads=0 / nr=0 / decimate=0 / interlaced=0 / bluray_compat=0 / constrained_intra=0 / bframes=7 / b_pyramid=2 / b_adapt=2 / b_bias=0 / direct=3 / weightb=1 / open_gop=0 / weightp=2 / keyint=250 / keyint_min=23 / scenecut=40 / intra_refresh=0 / rc_lookahead=80 / rc=2pass / mbtree=1 / bitrate=13500 / ratetol=1.0 / qcomp=0.65 / qpmin=5 / qpmax=65 / qpstep=4 / cplxblur=20.0 / qblur=0.5 / ip_ratio=1.40 / aq=1:0.90
Language : English
Default : No
Forced : No
=== Audio 1 ===
ID : 2
Format : AC-3
Format/Info : Audio Coding 3
Mode extension : CM (complete main)
Codec ID : A_AC3
Duration : 1h 33mn
Bit rate mode : Constant
Bit rate : 640 Kbps
Channel(s) : 6 channels
Channel positions : Front: L C R, Side: L R, LFE
Sampling rate : 48.0 KHz
Bit depth : 16 bits
Compression mode : Lossy
Stream size : 299 MiB (3%)
Title : Русский дублированный 5.1
Language : Russian
Default : Yes
Forced : No
=== Audio 2 ===
ID : 3
Format : AC-3
Format/Info : Audio Coding 3
Mode extension : CM (complete main)
Codec ID : A_AC3
Duration : 1h 33mn
Bit rate mode : Constant
Bit rate : 640 Kbps
Channel(s) : 6 channels
Channel positions : Front: L C R, Side: L R, LFE
Sampling rate : 48.0 KHz
Bit depth : 16 bits
Compression mode : Lossy
Stream size : 428 MiB (4%)
Title : English Original 5.1
Language : English
Default : No
Forced : No
Остальные раздачи этого фильма (4)
Благодарности релизеру (100)

Торрент:

Статус:

Размер:

Зарегистрирован   [ 2012-10-28 15:08 ]

проверено

9.64 GB

 
 Мнение о фильме (46)

1, 2, 3  След.






Как качество? Как 3D?
3D - великолепное. Ставлю высший бал. Создатели воспользовались объемом очень умело, в отличии от Шреков.
Качество релиза на 4. Очень даже смотрибельное, но приправленное периодическими артефактами.
чистый звук с кинотеатра который записан из Line-in
И там внатуре 5.1?
 

О!!!!Да!!!Это как раз любителей вылетов!!!:)
 

вылеты присутствуют?
3D использовано очень эффективно. Большая глубина и довольно частые качественные вылеты есть напротяжение всего фильма.
 

Спасибо большое! Рекордсмен по вылетам из мультиков!
 

спасибо......просто блеск
 

Mультик прикольный.3Д ооочень порадовало, на 10-тку
 

Спасибо!!! сейчас посмотрим и оценим.
 

Мультик прикольный ,3D отличное , автору спасибо за труды !
 

Класный мульт.Класное 3D.Спасибо!!!
 

Класное 3D.Спасибо!!!
 

Смотрел c ребёнком в кино в 3D - 5 баллов! В коллекцию! Tридэ на отлично! Спасибо!
 

Эта лучшая часть Мадагаскара. Фразы из мультфильма могут стать народными. Скачал и включил проверить качество и не оторвался.
 

Все бы так! 3д супер.
 

Зебра с полетами супер!!!))))))
 

По 3Д супер, а мульту чегото нехватает)))
 

мульт ржачный качество 3D супер смотреть всем!!!
 

спасибо! отличный мульт и отличное 3д!
 

спасибо!!!!! 3д на все100. качать всем.
 

Эта часть лучше первых двух и 3Д на отлично.
 

Очень классный мульт, а 3D вообще суперское!!Всё очень красочно и ярко!Спасибо!)
 

Страница 1 из 3

1, 2, 3  След.