Торренты   
 
 


Феи: Тайна зимнего леса / Tinker Bell: Secret of the Wings (Роберт Ганнавей, Пегги Холмс) [2012 г., BDRip 1080p, Full OverUnder]

Рейтинг 3D:
27 голосов
6.8
Рейтинг фильма:
25 голосов
6.7
 
Вы должны быть авторизированы,
чтобы ставить оценки


Феи: Тайна зимнего леса / Tinker Bell: Secret of the Wings
Год выпуска: 2012
Страна: США
Жанр: Мультфильм, Фэнтези, Комедия, Семейный
Продолжительность: 01:15:03
Перевод: Любительский (двухголосый)
Режиссер: Роберт Ганнавей, Пегги Холмс
В ролях: Тимоти Далтон, Люси Хейл, Меган Хилти, Анжелика Хьюстон, Мэтт Лантер, Джесси МакКартни, Мэй Уитман, Люси Лью, Рэйвен Дебби Райан
Описание: Динь-Динь и ее подруги всегда боялись пересекать границу с Зимним лесом, ведь существует поверье, что там очень опасно. В один прекрасный день Динь-Динь, сгорая от любопытства, подходит вплотную к лесу, и ее крылья неожиданно начинают блестеть и переливаться. Завороженная Динь, желая узнать тайну волшебных крыльев, кутается в теплое пальто и отправляется в глубь таинственного леса, где ее ждет неожиданное открытие…
Формат 3D: OverUnder
Видео: AVC, High@L5.0, 1920x2160, 23.976 fps, 15,3 Мбит/сек
Аудио: Rus, AC-3, 6 каналов, 384 Кбит/сек, 48,0 КГц
Аудио: Eng, DTS, 6 каналов, 1510 Кбит/сек, 48,0 КГц

Скриншоты




Анаглиф




MediaInfo

Общее
Уникальный идентификатор : 220723308223395929297280657732084059270 (0xA60DC34BA7DF601D90ED9EBB00FA4C86)
Полное имя : E:\NEW RIP\Tinker Bell Secret of the Wings 1080p.mkv
Формат : Matroska
Версия формата : Version 2
Размер файла : 9,18 Гбайт
Продолжительность : 1 ч. 15 м.
Общий поток : 17,5 Мбит/сек
Название фильма : Rip by Dag13
Дата кодирования : UTC 2012-10-24 08:35:46
Программа кодирования : mkvmerge v3.4.0 ('Rapunzel') сборка от May 15 2010 09:38:20
Библиотека кодирования : libebml v0.8.0 + libmatroska v0.9.0
Видео
Идентификатор : 1
Формат : AVC
Формат/Информация : Advanced Video Codec
Профиль формата : High@L5.0
Параметр CABAC формата : Да
Параметр ReFrames формата : 5 кадров
Идентификатор кодека : V_MPEG4/ISO/AVC
Продолжительность : 1 ч. 15 м.
Битрейт : 15,3 Мбит/сек
Ширина : 1920 пикселей
Высота : 2160 пикселей
Соотношение сторон : 0,889
Режим частоты кадров : Постоянный
Частота кадров : 23,976 кадра/сек
Цветовое пространство : YUV
Субдискретизация насыщенности : 4:2:0
Битовая глубина : 8 бит
Тип развёртки : Прогрессивная
Бит/(Пиксели*Кадры) : 0.154
Размер потока : 8,01 Гбайт (87%)
Библиотека кодирования : x264 core 120 r2145 748fe16
Настройки программы : cabac=1 / ref=5 / deblock=1:-2:-2 / analyse=0x3:0x113 / me=umh / subme=9 / psy=1 / psy_rd=1.00:0.00 / mixed_ref=1 / me_range=16 / chroma_me=1 / trellis=1 / 8x8dct=1 / cqm=0 / deadzone=21,11 / fast_pskip=1 / chroma_qp_offset=-2 / threads=9 / sliced_threads=0 / nr=0 / decimate=1 / interlaced=0 / bluray_compat=0 / constrained_intra=0 / bframes=6 / b_pyramid=2 / b_adapt=2 / b_bias=0 / direct=3 / weightb=1 / open_gop=0 / weightp=2 / keyint=250 / keyint_min=23 / scenecut=40 / intra_refresh=0 / rc_lookahead=60 / rc=crf / mbtree=1 / crf=18.0 / qcomp=0.60 / qpmin=1 / qpmax=69 / qpstep=4 / ip_ratio=1.40 / aq=1:1.00
Язык : English
Default : Нет
Forced : Нет
Аудио #1
Идентификатор : 2
Формат : AC-3
Формат/Информация : Audio Coding 3
Расширение режима : CM (complete main)
Параметр Endianness формата : Big
Идентификатор кодека : A_AC3
Продолжительность : 1 ч. 15 м.
Вид битрейта : Постоянный
Битрейт : 384 Кбит/сек
Каналы : 6 каналов
Расположение каналов : Front: L C R, Side: L R, LFE
Частота : 48,0 КГц
Битовая глубина : 16 бит
Метод сжатия : С потерями
Размер потока : 206 Мбайт (2%)
Язык : Russian
Default : Да
Forced : Нет
Аудио #2
Идентификатор : 3
Формат : DTS
Формат/Информация : Digital Theater Systems
Идентификатор кодека : A_DTS
Продолжительность : 1 ч. 15 м.
Вид битрейта : Постоянный
Битрейт : 1510 Кбит/сек
Каналы : 6 каналов
Расположение каналов : Front: L C R, Side: L R, LFE
Частота : 48,0 КГц
Битовая глубина : 24 бит
Метод сжатия : С потерями
Размер потока : 811 Мбайт (9%)
Язык : English
Default : Нет
Forced : Нет
На встроенных ТВ-плейерах показывать НЕ будет!!!
Остальные раздачи этого фильма (2)
Благодарности релизеру (3)

Торрент:

Статус:

Размер:

Зарегистрирован   [ 2012-10-24 15:11 ]

проверено

9.18 GB

 
 Мнение о фильме (11)





Здрасте..
Мульт очень красочный с хорошим и глубоким 3Д
Дочери очень понравился.Вот только нет у нас дубляжа а одноголосый.
по сему прозьба ,дайте - Русский дубляж- отдельно скачать.
Спс
 

mixa
кинул на народ.ру
 

Вот клас .спасибо marik05
 

mixa
Пожалуйста,обращайся,не стесняйся.
 

Спасибо!!!
 

marik05
кинул на народ.ру
marik05, извини здесь нет ссылки на звук...
 
001_mailinator2_com Профиль 03-Янв-2013 01:49

Мульт просто супер как по сюжету так и по графике. Дочка 3 раза пересмотрела. 3Д отличное. Спасибо.
 

смотрела на ТВ Samsung. Качество хорошее. Качайте.
 

Смотрели на тв LG, очень понравилось наивный добрый мульт! спасибо
 
девочка на облаке Профиль 05-Фев-2013 18:19

Классное зд, дочка довольна ! Спасибо !
 

Суперное времяпрепровождение !