Торренты   
 
 


Я, Робот / I, Robot (Алекс Пройас) [2004 г., Anamorph SideBySide]

Рейтинг 3D:
6 голосов
5.7
Рейтинг фильма:
8 голосов
9.0
 
Вы должны быть авторизированы,
чтобы ставить оценки


Я, Робот / I, Robot
Год выпуска: 2004
Страна: США, Германия, 20th Century Fox Film Corporation, Canlaws Productions, Davis Entertainment, Laurence Mark Productions, Mediastream Vierte Film GmbH & Co. Vermarktungs KG, Overbrook Entertainment
Жанр: Фантастика, боевик, триллер, детектив
Продолжительность: 01:54:43
Перевод: Профессиональный (полное дублирование)
Режиссер: Алекс Пройас
В ролях: Уилл Смит, Бриджет Мойнэхэн, Алан Тьюдик, Джеймс Кромуэлл, Брюс Гринву, Адриан Рикар, Чи МакБрайд, Джерри Вассерман, Фиона Хоган, Питер Шинкода, Терри Чен, Дэвид Нэйсом, Скотт Хейндл, Шарон Уилкинс, Крэйг Марч, Кайанна Кокс, Даррен Мур, Аарон Дуглас, Шейла Дайсон, Бобби Л. Стюарт, Николя Кросби, Эмили Теннант, Майкл Ст. Джон Смит, Трэвис Уэбстер, Роджер Хэскет, Тиффани Линдолл-Найт, Анджела Мур
Описание: Действие фильма происходит в будущем (2035 г.), где роботы являются обычными помощниками человека. Главный герой — полицейский, «не переваривающий» роботов, расследует дело об убийстве, в которое оказывается вовлечен робот. Речь идет о возможном нарушении «Закона о Роботах» (робот никогда не поднимет руки на человека), что, в принципе, невозможно. Ситуация близка к катастрофической: если машины могут нарушать этот закон, то уже ничто не остановит их от захвата контроля над людьми, тем более, что человечество уже давно стало полностью зависимо от роботов…
Формат 3D: Anamorph SideBySide
Видео: MPEG-4 AVC, 13.6 Мбит/с, 1920x1080, 23.976 кадр/с ( за что спасибо z-man)
Аудио: Русский (DTS, 6 ch, 755 Кбит/с), (AC3, 6 ch, 448 Кбит/с), (AC3, 6 ch, 640 Кбит/с), (DTS, 6 ch, 1510 Кбит/с), английский (DTS, 6 ch, 1510 Кбит/с)
Русский DTS, 6 ch, 755 Кбит/с, AC3, 6 ch, 640 Кбит/с - ДБ (CEE)
Русский AC3, 6 ch, 640 Кбит/с - ПМ
Русский AC3, 6 ch, 448 Кбит/с - ПД (Tycoon-Studio)
AC3, 6 ch, 448 Кбит/с - АП (А. Гаврилов)
DTS, 6 ch, 755 Кбит/с, AC3, 6 ch, 640 Кбит/с - АП (Ю. Живов)

Скриншоты


Инфо

General
Unique ID : 180042979109178470490695556811224763721 (0x87730437A8FA364F8DA98F40A74FCD49)
Complete name : M:\Кино3Д\Я Робот.2004.3D.x264.BDRip.1080p.SBS.3DRip.by.Kinozal.mkv
Format : Matroska
Format version : Version 2
File size : 15.9 GiB
Duration : 1h 54mn
Overall bit rate : 19.8 Mbps
Movie name : 3DRip-by-kinozal.tv
Encoded date : UTC 2012-10-24 18:13:15
Writing application : mkvmerge v3.4.0 ('Rapunzel') сборка от May 15 2010 09:38:20
Writing library : libebml v0.8.0 + libmatroska v0.9.0
Video
ID : 1
Format : AVC
Format/Info : Advanced Video Codec
Format profile : High@L4.1
MultiView_Count : 2
MultiView_Layout : Right Eye
Format settings, CABAC : Yes
Format settings, ReFrames : 4 frames
Codec ID : V_MPEG4/ISO/AVC
Duration : 1h 54mn
Bit rate : 13.6 Mbps
Width : 1 920 pixels
Height : 1 080 pixels
Display aspect ratio : 16:9
Frame rate : 23.976 fps
Color space : YUV
Chroma subsampling : 4:2:0
Bit depth : 8 bits
Scan type : Progressive
Bits/(Pixel*Frame) : 0.273
Stream size : 10.9 GiB (69%)
Title : 3DRip-by-kinozal.tv
Writing library : x264 core 128 r2216 198a7ea
Encoding settings : cabac=1 / ref=4 / deblock=1:-3:-3 / analyse=0x3:0x113 / me=umh / subme=10 / psy=1 / psy_rd=1.00:0.15 / mixed_ref=1 / me_range=32 / chroma_me=1 / trellis=2 / 8x8dct=1 / cqm=0 / deadzone=21,11 / fast_pskip=1 / chroma_qp_offset=-3 / threads=18 / lookahead_threads=3 / sliced_threads=0 / nr=0 / decimate=1 / interlaced=0 / bluray_compat=0 / constrained_intra=0 / bframes=6 / b_pyramid=2 / b_adapt=1 / b_bias=0 / direct=3 / weightb=1 / open_gop=0 / weightp=2 / keyint=250 / keyint_min=23 / scenecut=40 / intra_refresh=0 / rc_lookahead=40 / rc=crf / mbtree=1 / crf=18.0 / qcomp=0.60 / qpmin=10 / qpmax=69 / qpstep=4 / vbv_maxrate=40000 / vbv_bufsize=30000 / crf_max=0.0 / nal_hrd=none / ip_ratio=1.40 / aq=1:1.00
Default : No
Forced : No
Audio #1
ID : 2
Format : AC-3
Format/Info : Audio Coding 3
Mode extension : CM (complete main)
Format settings, Endianness : Big
Codec ID : A_AC3
Duration : 1h 54mn
Bit rate mode : Constant
Bit rate : 640 Kbps
Channel(s) : 6 channels
Channel positions : Front: L C R, Side: L R, LFE
Sampling rate : 48.0 KHz
Bit depth : 16 bits
Compression mode : Lossy
Stream size : 525 MiB (3%)
Title : 3DRip-by-kinozal.tv Дубляж
Language : Russian
Default : Yes
Forced : No
Audio #2
ID : 3
Format : DTS
Format/Info : Digital Theater Systems
Codec ID : A_DTS
Duration : 1h 54mn
Bit rate mode : Constant
Bit rate : 755 Kbps
Channel(s) : 6 channels
Channel positions : Front: L C R, Side: L R, LFE
Sampling rate : 48.0 KHz
Bit depth : 24 bits
Compression mode : Lossy
Stream size : 619 MiB (4%)
Title : 3DRip-by-kinozal.tv Дубляж
Language : Russian
Default : No
Forced : No
Audio #3
ID : 4
Format : AC-3
Format/Info : Audio Coding 3
Mode extension : CM (complete main)
Format settings, Endianness : Big
Codec ID : A_AC3
Duration : 1h 54mn
Bit rate mode : Constant
Bit rate : 640 Kbps
Channel(s) : 6 channels
Channel positions : Front: L C R, Side: L R, LFE
Sampling rate : 48.0 KHz
Bit depth : 16 bits
Compression mode : Lossy
Stream size : 525 MiB (3%)
Title : 3DRip-by-kinozal.tv ПМ
Language : Russian
Default : No
Forced : No
Audio #4
ID : 5
Format : AC-3
Format/Info : Audio Coding 3
Mode extension : CM (complete main)
Format settings, Endianness : Big
Codec ID : A_AC3
Duration : 1h 54mn
Bit rate mode : Constant
Bit rate : 448 Kbps
Channel(s) : 6 channels
Channel positions : Front: L C R, Side: L R, LFE
Sampling rate : 48.0 KHz
Bit depth : 16 bits
Compression mode : Lossy
Stream size : 368 MiB (2%)
Title : 3DRip-by-kinozal.tv ПД
Language : Russian
Default : No
Forced : No
Audio #5
ID : 6
Format : AC-3
Format/Info : Audio Coding 3
Mode extension : CM (complete main)
Format settings, Endianness : Big
Codec ID : A_AC3
Duration : 1h 54mn
Bit rate mode : Constant
Bit rate : 448 Kbps
Channel(s) : 6 channels
Channel positions : Front: L C R, Side: L R, LFE
Sampling rate : 48.0 KHz
Bit depth : 16 bits
Compression mode : Lossy
Stream size : 368 MiB (2%)
Title : 3DRip-by-kinozal.tv (Гаврилов)
Language : Russian
Default : No
Forced : No
Audio #6
ID : 7
Format : AC-3
Format/Info : Audio Coding 3
Mode extension : CM (complete main)
Format settings, Endianness : Big
Codec ID : A_AC3
Duration : 1h 54mn
Bit rate mode : Constant
Bit rate : 640 Kbps
Channel(s) : 6 channels
Channel positions : Front: L C R, Side: L R, LFE
Sampling rate : 48.0 KHz
Bit depth : 16 bits
Compression mode : Lossy
Stream size : 525 MiB (3%)
Title : 3DRip-by-kinozal.tv (Живов)
Language : Russian
Default : No
Forced : No
Audio #7
ID : 8
Format : DTS
Format/Info : Digital Theater Systems
Codec ID : A_DTS
Duration : 1h 54mn
Bit rate mode : Constant
Bit rate : 755 Kbps
Channel(s) : 6 channels
Channel positions : Front: L C R, Side: L R, LFE
Sampling rate : 48.0 KHz
Bit depth : 24 bits
Compression mode : Lossy
Stream size : 619 MiB (4%)
Title : 3DRip-by-kinozal.tv ( Живов )
Language : Russian
Default : No
Forced : No
Audio #8
ID : 9
Format : DTS
Format/Info : Digital Theater Systems
Codec ID : A_DTS
Duration : 1h 54mn
Bit rate mode : Constant
Bit rate : 1 510 Kbps
Channel(s) : 6 channels
Channel positions : Front: L C R, Side: L R, LFE
Sampling rate : 48.0 KHz
Bit depth : 24 bits
Compression mode : Lossy
Delay relative to video : 11ms
Stream size : 1.21 GiB (8%)
Language : English
Default : No
Forced : No
Menu
00:00:00.000 : en:00:00:00.000
00:01:46.940 : en:00:01:46.940
00:03:30.252 : en:00:03:30.252
00:06:18.545 : en:00:06:18.545
00:07:57.519 : en:00:07:57.519
00:10:19.702 : en:00:10:19.702
00:12:11.230 : en:00:12:11.230
00:15:35.309 : en:00:15:35.309
00:17:47.984 : en:00:17:47.984
00:22:51.870 : en:00:22:51.870
00:26:14.031 : en:00:26:14.031
00:26:59.243 : en:00:26:59.243
00:33:23.168 : en:00:33:23.168
00:36:03.578 : en:00:36:03.578
00:41:23.523 : en:00:41:23.523
00:46:07.890 : en:00:46:07.890
00:49:06.026 : en:00:49:06.026
00:52:14.506 : en:00:52:14.506
00:55:22.277 : en:00:55:22.277
00:58:31.717 : en:00:58:31.717
01:00:06.770 : en:01:00:06.770
01:01:08.665 : en:01:01:08.665
01:07:56.114 : en:01:07:56.114
01:08:18.094 : en:01:08:18.094
01:10:24.303 : en:01:10:24.303
01:13:17.226 : en:01:13:17.226
01:16:53.818 : en:01:16:53.818
01:18:39.465 : en:01:18:39.465
01:20:14.226 : en:01:20:14.226
01:21:18.290 : en:01:21:18.290
01:21:57.454 : en:01:21:57.454
01:27:29.536 : en:01:27:29.536
01:28:57.666 : en:01:28:57.666
01:32:59.657 : en:01:32:59.657
01:34:45.138 : en:01:34:45.138
01:38:09.467 : en:01:38:09.467
01:41:10.898 : en:01:41:10.898
01:44:15.416 : en:01:44:15.416
01:45:02.755 : en:01:45:02.755
Благодарности релизеру (12)

Торрент:

Статус:

Размер:

Зарегистрирован   [ 2012-10-24 22:43 ]

T временная

15.87 GB

 
Комментарии:





Фильм классный,пересмотрел уже много раз.Теперь в 3D,СПАСИБО!!!!
 

Топик был перенесен из форума Фильмы в форум Архив

Dag13