Торренты   
 
 


Ледниковый период 4: Континентальный дрейф / Ice Age: Continental Drift (Стив Мартино, Майк Трумейер) [2012 г., Anamorph SideBySide]

Рейтинг 3D:
Пока никто не голосовал
Рейтинг фильма:
Пока никто не голосовал
 
Вы должны быть авторизированы,
чтобы ставить оценки


Ледниковый период 4: Континентальный дрейф / Ice Age: Continental Drift
Год выпуска: 2012
Страна: США, Blue Sky Studios
Жанр: Мультфильм
Продолжительность: 01:27:46
Перевод: Профессиональный (полное дублирование)
Режиссер: Стив Мартино, Майк Трумейер
В ролях: Рэй Романо, Джон Легуизамо, Куин Латифа, Дэнис Лири, Джош Пек, Питер Динклэйдж, Кеке Палмер, Дженнифер Лопес, Ник Фрост, Азиз Ансари, Джой Бехар, Кристофер Кэмпбелл, Ален Шаба, Эстер Дин, Обри Грэм, Джейсон Фриччион, Джош Гад, Джордж Джейкобс, Ники Минаж, Хезер Моррис, Кунал Найяр, Джеймс Палумбо, Саймон Пегг, Элли Романо, Шонн Уильям Скотт, Мэттью Симмонс, Эдди «Пайолин» Сотело, Патрик Стюарт, Ванда Сайкес, Меган Трумейер, Алан Тьюдик, Крис Уэдж, Ребел Уилсон, Эшли Альберт, Эдита Брыхта, Дэннис Т. Карнеги, Эме Кастл, Джим Конрой, Нола Донкин, Дэн Флаэрти, Мэриев Херингтон, Джейсон Харрис, Сондра Джеймс, Линда Джой
Описание: После приключений под землей прошло семь лет. Случился дрейф континентов. Главные герои мультфильма, отделённые от стада, вынуждены использовать айсберг в качестве плота. Они пересекают океан и попадают в неизвестные им ранее земли с экзотическими животными и пиратами, враждебно настроенными к ним. Скрэту удаётся получить свой жёлудь, но он перемещается в новые для него земли.
Формат 3D: Anamorph SideBySide
Видео: MPEG4 AVC, 13.2 Мбит/с, 1920x800, 23.976 кадр/с (ФАБРип)
Аудио: Русский (AC3, 6 ch, 448 Кбит/с), (DTS, 6 ch, 755 Кбит/с), английский (DTS, 6 ch, 1509 Кбит/с)

Скриншоты


Инфо

General
Unique ID : 247377589813165278979595748312316739309 (0xBA1B30D6E709ACA7A6D0308CB5597EED)
Complete name : D:\Кино3Д\Ледниковый период 4. Континентальный дрейф 3D.2012.x264.BDRip.1080p.SBS.3DRip.mkv
Format : Matroska
Format version : Version 2
File size : 10.1 GiB
Duration : 1h 28mn
Overall bit rate mode : Variable
Overall bit rate : 16.3 Mbps
Movie name : 3DRip-by-kinozal.tv
Encoded date : UTC 2012-10-25 07:19:20
Writing application : mkvmerge v3.4.0 ('Rapunzel') сборка от May 15 2010 09:38:20
Writing library : libebml v0.8.0 + libmatroska v0.9.0
Video
ID : 1
Format : AVC
Format/Info : Advanced Video Codec
Format profile : High@L4.1
Format settings, CABAC : Yes
Format settings, ReFrames : 4 frames
Codec ID : V_MPEG4/ISO/AVC
Duration : 1h 28mn
Bit rate : 13.2 Mbps
Width : 1 920 pixels
Height : 800 pixels
Display aspect ratio : 2.40:1
Frame rate : 23.976 fps
Color space : YUV
Chroma subsampling : 4:2:0
Bit depth : 8 bits
Scan type : Progressive
Bits/(Pixel*Frame) : 0.359
Stream size : 8.18 GiB (81%)
Writing library : x264 core
Default : Yes
Forced : No
Color primaries : BT.709-5, BT.1361, IEC 61966-2-4, SMPTE RP177
Transfer characteristics : BT.709-5, BT.1361
Matrix coefficients : BT.709-5, BT.1361, IEC 61966-2-4 709, SMPTE RP177
Audio #1
ID : 2
Format : AC-3
Format/Info : Audio Coding 3
Mode extension : CM (complete main)
Format settings, Endianness : Big
Codec ID : A_AC3
Duration : 1h 28mn
Bit rate mode : Constant
Bit rate : 448 Kbps
Channel(s) : 6 channels
Channel positions : Front: L C R, Side: L R, LFE
Sampling rate : 48.0 KHz
Bit depth : 16 bits
Compression mode : Lossy
Delay relative to video : 1s 0ms
Stream size : 284 MiB (3%)
Title : 3DRip-by-kinozal.tv
Language : Russian
Default : Yes
Forced : No
Audio #2
ID : 3
Format : DTS
Format/Info : Digital Theater Systems
Codec ID : A_DTS
Duration : 1h 28mn
Bit rate mode : Constant
Bit rate : 755 Kbps
Channel(s) : 6 channels
Channel positions : Front: L C R, Side: L R, LFE
Sampling rate : 48.0 KHz
Bit depth : 24 bits
Compression mode : Lossy
Delay relative to video : 1s 0ms
Stream size : 479 MiB (5%)
Title : 1003DRip-by-kinozal.tv
Language : Russian
Default : No
Forced : No
Audio #3
ID : 4
Format : DTS
Format/Info : Digital Theater Systems
Format profile : MA / Core
Codec ID : A_DTS
Duration : 1h 28mn
Bit rate mode : Variable
Bit rate : 1 597 Kbps / 1 510 Kbps
Channel(s) : 8 channels / 6 channels
Channel positions : Front: L C R, Side: L R, Back: L R, LFE / Front: L C R, Side: L R, LFE
Sampling rate : 48.0 KHz
Bit depth : 16 bits
Compression mode : Lossless / Lossy
Title : 3DRip-by-kinozal.tv
Language : English
Default : No
Forced : No
Menu
00:00:00.000 : en:(01)00:00:00:000
00:03:25.246 : en:(02)00:03:25:246
00:05:08.516 : en:(03)00:05:08:516
00:09:34.991 : en:(04)00:09:34:991
00:13:10.498 : en:(05)00:13:10:498
00:15:57.289 : en:(06)00:15:57:289
00:18:24.728 : en:(07)00:18:24:728
00:22:26.053 : en:(08)00:22:26:053
00:25:59.099 : en:(09)00:25:59:099
00:29:20.717 : en:(10)00:29:20:717
00:33:00.561 : en:(11)00:33:00:561
00:36:17.550 : en:(12)00:36:17:550
00:38:44.989 : en:(13)00:38:44:989
00:43:52.338 : en:(14)00:43:52:338
00:45:33.355 : en:(15)00:45:33:355
00:49:42.938 : en:(16)00:49:42:938
00:53:53.688 : en:(17)00:53:53:688
00:57:27.318 : en:(18)00:57:27:318
01:02:35.793 : en:(19)01:02:35:793
01:08:13.422 : en:(20)01:08:13:422
01:11:15.729 : en:(21)01:11:15:729
01:13:20.020 : en:(22)01:13:20:020
01:16:59.031 : en:(23)01:16:59:031
01:19:29.389 : en:(24)01:19:29:389
Благодарности релизеру (0)

Торрент:

Статус:

Размер:

Зарегистрирован   [ 2012-10-25 12:24 ]

поглощено

10.12 GB

 
Комментарии:





demonadawar, а для чего обрезаны полосы. На телевизорах будут вытянутые морды.
 

нет не будет, у меня нормально показывало.
 

у меня нормально показывало.
Значит телевизор сам добавил черные полосы, хотя в ряд ли, аспект забит 2:4, так что пропорции нарушены и морды будут вытянуты.
 

Вот так будет показывать данный рип:
А вот так должен:
 

На современных телеках (у мну например) аспект правильный. Но для этого мульта я предпочитаю Crop&Upscale. Иначе объема не хватает.
 

Современные ТВ уже понимают вшитый аспект ратио, а ТВ-2010 не понимают и на них будет вытянуто.
 

Топик был перенесен из форума Мультфильмы в форум Архив

Zagruzin