Торренты   
 
 


Я, Робот / I, Robot (Алекс Пройас) [2004 г., Anamorph OverUnder]

Рейтинг 3D:
16 голосов
5.7
Рейтинг фильма:
26 голосов
9.3
 
Вы должны быть авторизированы,
чтобы ставить оценки


Я, Робот / I, Robot
Год выпуска: 2004
Страна: США, Германия, 20th Century Fox Film Corporation, Canlaws Productions, Davis Entertainment, Laurence Mark Productions, Mediastream Vierte Film GmbH & Co. Vermarktungs KG, Overbrook Entertainment
Жанр: Фантастика, боевик, триллер, детектив
Продолжительность: 01:54:43
Перевод: Профессиональный (полное дублирование)
Режиссер: Алекс Пройас
В ролях: Уилл Смит, Бриджет Мойнэхэн, Алан Тьюдик, Джеймс Кромуэлл, Брюс Гринву, Адриан Рикар, Чи МакБрайд, Джерри Вассерман, Фиона Хоган, Питер Шинкода, Терри Чен, Дэвид Нэйсом, Скотт Хейндл, Шарон Уилкинс, Крэйг Марч, Кайанна Кокс, Даррен Мур, Аарон Дуглас, Шейла Дайсон, Бобби Л. Стюарт, Николя Кросби, Эмили Теннант, Майкл Ст. Джон Смит, Трэвис Уэбстер, Роджер Хэскет, Тиффани Линдолл-Найт, Анджела Мур
Описание: Действие фильма происходит в будущем (2035 г.), где роботы являются обычными помощниками человека. Главный герой — полицейский, «не переваривающий» роботов, расследует дело об убийстве, в которое оказывается вовлечен робот. Речь идет о возможном нарушении «Закона о Роботах» (робот никогда не поднимет руки на человека), что, в принципе, невозможно. Ситуация близка к катастрофической: если машины могут нарушать этот закон, то уже ничто не остановит их от захвата контроля над людьми, тем более, что человечество уже давно стало полностью зависимо от роботов…
Формат 3D: Anamorph OverUnder
Видео: MPEG-4 AVC, 14.6 Мбит/с, 1920x1080, 23.976 кадр/с (Фабрип)
Аудио: Русский (AC3, 6 ch, 448 Кбит/с), (AC3, 6 ch, 640 Кбит/с), (DTS, 6 ch, 1510 Кбит/с), (DTS, 6 ch, 755 Кбит/с), украинский (AC3, 6 ch, 448 Кбит/с), английский (DTS, 6 ch, 1510 Кбит/с)
Русский DTS, 6 ch, 755 Кбит/с | AC3, 6 ch, 640 Кбит/с - ДБ (CEE)
Русский DTS, 6 ch, 1510 Кбит/с | AC3, 6 ch, 640 Кбит/с - ПМ
Русский DTS, 6 ch, 1510 Кбит/с | AC3, 6 ch, 640 Кбит/с - ПМ (Tycoon-Studio)
AC3, 6 ch, 448 Кбит/с - АП (А. Гаврилов)
DTS, 6 ch, 755 Кбит/с | AC3, 6 ch, 640 Кбит/с - АП (Ю. Живов)

Скриншоты


инфо

General
Unique ID : 195695571100441585010871981035246143220 (0x93399895DB49D9B5A3C73A47AF4146F4)
Complete name : D:\Кино3Д\Я Робот.2004.3D.x264.BDRip.1080p.HOU.3DRip.by.Kinozal.mkv
Format : Matroska
Format version : Version 2
File size : 19.7 GiB
Duration : 1h 54mn
Overall bit rate : 24.6 Mbps
Movie name : 3DRip-by-kinozal.TV
Encoded date : UTC 2012-10-25 11:29:33
Writing application : mkvmerge v3.4.0 ('Rapunzel') сборка от May 15 2010 09:38:20
Writing library : libebml v0.8.0 + libmatroska v0.9.0
Video
ID : 1
Format : AVC
Format/Info : Advanced Video Codec
Format profile : High@L4.1
Format settings, CABAC : Yes
Format settings, ReFrames : 4 frames
Codec ID : V_MPEG4/ISO/AVC
Duration : 1h 54mn
Bit rate : 14.6 Mbps
Width : 1 920 pixels
Height : 1 080 pixels
Display aspect ratio : 16:9
Frame rate : 23.976 fps
Color space : YUV
Chroma subsampling : 4:2:0
Bit depth : 8 bits
Scan type : Progressive
Bits/(Pixel*Frame) : 0.294
Stream size : 11.7 GiB (59%)
Title : 3DRip-by-kinozal.TV
Writing library : x264 core
Default : Yes
Forced : No
Color primaries : BT.709-5, BT.1361, IEC 61966-2-4, SMPTE RP177
Transfer characteristics : BT.709-5, BT.1361
Matrix coefficients : BT.709-5, BT.1361, IEC 61966-2-4 709, SMPTE RP177
Audio #1
ID : 2
Format : AC-3
Format/Info : Audio Coding 3
Mode extension : CM (complete main)
Format settings, Endianness : Big
Codec ID : A_AC3
Duration : 1h 54mn
Bit rate mode : Constant
Bit rate : 640 Kbps
Channel(s) : 6 channels
Channel positions : Front: L C R, Side: L R, LFE
Sampling rate : 48.0 KHz
Bit depth : 16 bits
Compression mode : Lossy
Stream size : 525 MiB (3%)
Title : 3DRip-by-kinozal.TV
Language : Russian
Default : Yes
Forced : No
Audio #2
ID : 3
Format : DTS
Format/Info : Digital Theater Systems
Codec ID : A_DTS
Duration : 1h 54mn
Bit rate mode : Constant
Bit rate : 755 Kbps
Channel(s) : 6 channels
Channel positions : Front: L C R, Side: L R, LFE
Sampling rate : 48.0 KHz
Bit depth : 24 bits
Compression mode : Lossy
Stream size : 619 MiB (3%)
Title : 3DRip-by-kinozal.TV
Language : Russian
Default : No
Forced : No
Audio #3
ID : 4
Format : AC-3
Format/Info : Audio Coding 3
Mode extension : CM (complete main)
Format settings, Endianness : Big
Codec ID : A_AC3
Duration : 1h 54mn
Bit rate mode : Constant
Bit rate : 640 Kbps
Channel(s) : 6 channels
Channel positions : Front: L C R, Side: L R, LFE
Sampling rate : 48.0 KHz
Bit depth : 16 bits
Compression mode : Lossy
Stream size : 525 MiB (3%)
Title : 3DRip-by-kinozal.TV
Language : Russian
Default : No
Forced : No
Audio #4
ID : 5
Format : DTS
Format/Info : Digital Theater Systems
Codec ID : A_DTS
Duration : 1h 54mn
Bit rate mode : Constant
Bit rate : 1 510 Kbps
Channel(s) : 6 channels
Channel positions : Front: L C R, Side: L R, LFE
Sampling rate : 48.0 KHz
Bit depth : 16 bits
Compression mode : Lossy
Stream size : 1.21 GiB (6%)
Title : 3DRip-by-kinozal.TV
Language : Russian
Default : No
Forced : No
Audio #5
ID : 6
Format : AC-3
Format/Info : Audio Coding 3
Mode extension : CM (complete main)
Format settings, Endianness : Big
Codec ID : A_AC3
Duration : 1h 54mn
Bit rate mode : Constant
Bit rate : 640 Kbps
Channel(s) : 6 channels
Channel positions : Front: L C R, Side: L R, LFE
Sampling rate : 48.0 KHz
Bit depth : 16 bits
Compression mode : Lossy
Stream size : 525 MiB (3%)
Title : 3DRip-by-kinozal.TV
Language : Russian
Default : No
Forced : No
Audio #6
ID : 7
Format : DTS
Format/Info : Digital Theater Systems
Codec ID : A_DTS
Duration : 1h 54mn
Bit rate mode : Constant
Bit rate : 1 510 Kbps
Channel(s) : 6 channels
Channel positions : Front: L C R, Side: L R, LFE
Sampling rate : 48.0 KHz
Bit depth : 16 bits
Compression mode : Lossy
Stream size : 1.21 GiB (6%)
Title : 3DRip-by-kinozal.TV
Language : Russian
Default : No
Forced : No
Audio #7
ID : 8
Format : AC-3
Format/Info : Audio Coding 3
Mode extension : CM (complete main)
Format settings, Endianness : Big
Codec ID : A_AC3
Duration : 1h 54mn
Bit rate mode : Constant
Bit rate : 448 Kbps
Channel(s) : 6 channels
Channel positions : Front: L C R, Side: L R, LFE
Sampling rate : 48.0 KHz
Bit depth : 16 bits
Compression mode : Lossy
Stream size : 368 MiB (2%)
Title : 3DRip-by-kinozal.TV
Language : Russian
Default : No
Forced : No
Audio #8
ID : 9
Format : AC-3
Format/Info : Audio Coding 3
Mode extension : CM (complete main)
Format settings, Endianness : Big
Codec ID : A_AC3
Duration : 1h 54mn
Bit rate mode : Constant
Bit rate : 640 Kbps
Channel(s) : 6 channels
Channel positions : Front: L C R, Side: L R, LFE
Sampling rate : 48.0 KHz
Bit depth : 16 bits
Compression mode : Lossy
Stream size : 525 MiB (3%)
Title : 3DRip-by-kinozal.TV
Language : Russian
Default : No
Forced : No
Audio #9
ID : 10
Format : DTS
Format/Info : Digital Theater Systems
Codec ID : A_DTS
Duration : 1h 54mn
Bit rate mode : Constant
Bit rate : 755 Kbps
Channel(s) : 6 channels
Channel positions : Front: L C R, Side: L R, LFE
Sampling rate : 48.0 KHz
Bit depth : 24 bits
Compression mode : Lossy
Stream size : 619 MiB (3%)
Title : 3DRip-by-kinozal.TV
Language : Russian
Default : No
Forced : No
Audio #10
ID : 11
Format : AC-3
Format/Info : Audio Coding 3
Mode extension : CM (complete main)
Format settings, Endianness : Big
Codec ID : A_AC3
Duration : 1h 54mn
Bit rate mode : Constant
Bit rate : 448 Kbps
Channel(s) : 6 channels
Channel positions : Front: L C R, Side: L R, LFE
Sampling rate : 48.0 KHz
Bit depth : 16 bits
Compression mode : Lossy
Stream size : 368 MiB (2%)
Language : Ukrainian
Default : No
Forced : No
Audio #11
ID : 12
Format : DTS
Format/Info : Digital Theater Systems
Codec ID : A_DTS
Duration : 1h 54mn
Bit rate mode : Constant
Bit rate : 1 510 Kbps
Channel(s) : 6 channels
Channel positions : Front: L C R, Side: L R, LFE
Sampling rate : 48.0 KHz
Bit depth : 24 bits
Compression mode : Lossy
Stream size : 1.21 GiB (6%)
Language : English
Default : No
Forced : No
Menu
00:00:00.000 : en:(01)00:00:00:000
00:01:46.856 : en:(02)00:01:46:856
00:01:46.940 : en:(03)00:01:46:940
00:03:30.168 : en:(04)00:03:30:168
00:03:30.251 : en:(05)00:03:30:251
00:06:18.461 : en:(06)00:06:18:461
00:06:18.544 : en:(07)00:06:18:544
00:07:57.435 : en:(08)00:07:57:435
00:07:57.518 : en:(09)00:07:57:518
00:10:19.619 : en:(10)00:10:19:619
00:10:19.702 : en:(11)00:10:19:702
00:12:11.147 : en:(12)00:12:11:147
00:12:11.230 : en:(13)00:12:11:230
00:15:35.225 : en:(14)00:15:35:225
00:15:35.309 : en:(15)00:15:35:309
00:17:47.900 : en:(16)00:17:47:900
00:17:47.983 : en:(17)00:17:47:983
00:22:51.787 : en:(18)00:22:51:787
00:22:51.870 : en:(19)00:22:51:870
00:26:13.947 : en:(20)00:26:13:947
00:26:14.030 : en:(21)00:26:14:030
00:26:59.159 : en:(22)00:26:59:159
00:26:59.242 : en:(23)00:26:59:242
00:33:23.084 : en:(24)00:33:23:084
00:33:23.167 : en:(25)00:33:23:167
00:36:03.494 : en:(26)00:36:03:494
00:36:03.578 : en:(27)00:36:03:578
00:41:23.439 : en:(28)00:41:23:439
00:41:23.522 : en:(29)00:41:23:522
00:46:07.806 : en:(30)00:46:07:806
00:46:07.890 : en:(31)00:46:07:890
00:49:05.943 : en:(32)00:49:05:943
00:49:06.026 : en:(33)00:49:06:026
00:52:14.422 : en:(34)00:52:14:422
00:52:14.506 : en:(35)00:52:14:506
00:55:22.193 : en:(36)00:55:22:193
00:55:22.277 : en:(37)00:55:22:277
00:58:31.633 : en:(38)00:58:31:633
00:58:31.716 : en:(39)00:58:31:716
01:00:06.686 : en:(40)01:00:06:686
01:00:06.769 : en:(41)01:00:06:769
01:01:08.581 : en:(42)01:01:08:581
01:01:08.665 : en:(43)01:01:08:665
01:07:56.030 : en:(44)01:07:56:030
01:07:56.113 : en:(45)01:07:56:113
01:08:18.010 : en:(46)01:08:18:010
01:08:18.094 : en:(47)01:08:18:094
01:10:24.220 : en:(48)01:10:24:220
01:10:24.303 : en:(49)01:10:24:303
01:13:17.142 : en:(50)01:13:17:142
01:13:17.226 : en:(51)01:13:17:226
01:16:53.734 : en:(52)01:16:53:734
01:16:53.817 : en:(53)01:16:53:817
01:18:39.381 : en:(54)01:18:39:381
01:18:39.464 : en:(55)01:18:39:464
01:20:14.142 : en:(56)01:20:14:142
01:20:14.226 : en:(57)01:20:14:226
01:21:18.206 : en:(58)01:21:18:206
01:21:18.290 : en:(59)01:21:18:290
01:21:57.370 : en:(60)01:21:57:370
01:21:57.454 : en:(61)01:21:57:454
01:27:29.452 : en:(62)01:27:29:452
01:27:29.535 : en:(63)01:27:29:535
01:28:57.582 : en:(64)01:28:57:582
01:28:57.665 : en:(65)01:28:57:665
01:32:59.574 : en:(66)01:32:59:574
01:32:59.657 : en:(67)01:32:59:657
01:34:45.054 : en:(68)01:34:45:054
01:34:45.137 : en:(69)01:34:45:137
01:38:09.383 : en:(70)01:38:09:383
01:38:09.466 : en:(71)01:38:09:466
01:41:10.814 : en:(72)01:41:10:814
01:41:10.898 : en:(73)01:41:10:898
01:44:15.332 : en:(74)01:44:15:332
01:44:15.415 : en:(75)01:44:15:415
01:45:02.671 : en:(76)01:45:02:671
01:45:02.754 : en:(77)01:45:02:754
01:46:07.819 : en:(78)01:46:07:819
01:46:47.109 : en:(79)01:46:47:109
01:47:32.904 : en:(80)01:47:32:904
01:48:31.796 : en:(81)01:48:31:796
01:49:17.634 : en:(82)01:49:17:634
01:49:43.827 : en:(83)01:49:43:827
01:50:23.074 : en:(84)01:50:23:074
01:51:08.870 : en:(85)01:51:08:870
01:52:01.256 : en:(86)01:52:01:256
01:52:53.600 : en:(87)01:52:53:600
01:53:45.944 : en:(88)01:53:45:944
01:54:44.627 : en:(89)01:54:44:627
Благодарности релизеру (12)

Торрент:

Статус:

Размер:

Зарегистрирован   [ 2012-10-25 19:32 ]

поглощено

19.72 GB