Торренты   
 
 

 

Ледниковый период 4: Континентальный дрейф / Ice Age: Continental Drift (Стив Мартино, Майк Трумейер) [2012, BDrip, half1080p, Anamorph SideBySide]

Рейтинг 3D:
133 голосов
8.3
Рейтинг фильма:
131 голосов
8.2
 
Вы должны быть авторизированы,
чтобы ставить оценки


Ледниковый период 4: Континентальный дрейф / Ice Age: Continental Drift
Год выпуска: 2012
Страна: США, Blue Sky Studios
Жанр: мультфильм, комедия, приключения, семейный
Продолжительность: 01:27:47
Перевод: Профессиональный (полное дублирование)
Режиссеры: Стив Мартино, Майк Трумейер
Актёры озвучания:
Рэй Романо, Джон Легуизамо, Куин Латифа, Дэнис Лири, Джош Пек, Питер Динклэйдж, Кеке Палмер, Дженнифер Лопес, Ник Фрост, Азиз Ансари, Джой Бехар, Кристофер Кэмпбелл, Ален Шаба, Эстер Дин, Обри Грэм, Джейсон Фриччион, Джош Гад, Джордж Джейкобс, Ники Минаж, Хезер Моррис, Кунал Найяр, Джеймс Палумбо, Саймон Пегг, Элли Романо, Шонн Уильям Скотт, Мэттью Симмонс, Эдди «Пайолин» Сотело, Патрик Стюарт, Ванда Сайкес, Меган Трумейер, Алан Тьюдик, Крис Уэдж, Ребел Уилсон, Эшли Альберт, Эдита Брыхта, Дэннис Т. Карнеги, Эме Кастл, Джим Конрой, Нола Донкин, Дэн Флаэрти, Мэриев Херингтон, Джейсон Харрис, Сондра Джеймс, Линда Джой
Актёры российского дубляжа:
Степан Старчиков, Антон Комолов, Ольга Шелест, Александр Груздев, Илья Бледный, Иван Охлобыстин, Вероника Саркисова, Альбина Джанабаева, Александр Невский, Даниил Эльдаров, Полина Быстрицкая, Андрей Бархударов, Александра Назарова
Описание: После приключений под землей прошло семь лет. Случился дрейф континентов. Главные герои мультфильма, отделённые от стада, вынуждены использовать айсберг в качестве плота. Они пересекают океан и попадают в неизвестные им ранее земли с экзотическими животными и пиратами, враждебно настроенными к ним. Скрэту удаётся получить свой жёлудь, но он перемещается в новые для него земли.
Формат 3D: Anamorph SideBySide
Порядок ракурсов: Параллельная пара
Видео: MPEG4 AVC, 8 738 Kbps, 1920x1080, 23.976 кадр/с
Аудио №1: Русский дублированный перевод / AC3 / 48 KHz / 5.1 ch / 640 Kbps
Аудио №2: Английский оригинальный / AC3 / 48 KHz / 5.1 ch / 640 Kbps
Аудио №3: Украинский дублированный перевод / AC3 / 48 KHz / 5.1 ch / 448 Kbps

MediaInfo

General
Unique ID : 237624770458521597411973177901331176024 (0xB2C4DDB86DF47D6787813E5B49C6DA58)
Complete name : Ice Age. Continental Drift [Ледниковый период 4. Континентальный дрейф] (2012) DUB hSbS 1080p.mkv
Format : Matroska
Format version : Version 2
File size : 6.55 GiB
Duration : 1h 27mn
Overall bit rate : 10.7 Mbps
Encoded date : UTC 2012-10-26 05:00:14
Writing application : mkvmerge v5.8.0 ('No Sleep / Pillow') built on Sep 2 2012 15:37:04
Writing library : libebml v1.2.3 + libmatroska v1.3.0
Video
ID : 1
Format : AVC
Format/Info : Advanced Video Codec
Format profile : High@L4.1
Format settings, CABAC : Yes
Format settings, ReFrames : 4 frames
Codec ID : V_MPEG4/ISO/AVC
Duration : 1h 27mn
Bit rate : 8 738 Kbps
Width : 1 920 pixels
Height : 1 080 pixels
Display aspect ratio : 16:9
Frame rate : 23.976 fps
Color space : YUV
Chroma subsampling : 4:2:0
Bit depth : 8 bits
Scan type : Progressive
Bits/(Pixel*Frame) : 0.176
Stream size : 5.36 GiB (82%)
Writing library : x264 core 128 r2216 198a7ea
Encoding settings : cabac=1 / ref=4 / deblock=1:-3:-3 / analyse=0x3:0x113 / me=umh / subme=9 / psy=1 / psy_rd=1.00:0.15 / mixed_ref=1 / me_range=32 / chroma_me=1 / trellis=2 / 8x8dct=1 / cqm=0 / deadzone=21,11 / fast_pskip=1 / chroma_qp_offset=-3 / threads=6 / lookahead_threads=1 / sliced_threads=0 / nr=0 / decimate=1 / interlaced=0 / bluray_compat=0 / constrained_intra=0 / bframes=4 / b_pyramid=2 / b_adapt=2 / b_bias=0 / direct=3 / weightb=1 / open_gop=0 / weightp=2 / keyint=250 / keyint_min=23 / scenecut=40 / intra_refresh=0 / rc_lookahead=60 / rc=crf / mbtree=1 / crf=17.0 / qcomp=0.60 / qpmin=0 / qpmax=69 / qpstep=4 / vbv_maxrate=40000 / vbv_bufsize=40000 / crf_max=0.0 / nal_hrd=none / ip_ratio=1.40 / aq=1:0.70
Language : English
Default : Yes
Forced : No
Audio #1
ID : 2
Format : AC-3
Format/Info : Audio Coding 3
Mode extension : CM (complete main)
Codec ID : A_AC3
Duration : 1h 27mn
Bit rate mode : Constant
Bit rate : 640 Kbps
Channel(s) : 6 channels
Channel positions : Front: L C R, Side: L R, LFE
Sampling rate : 48.0 KHz
Bit depth : 16 bits
Compression mode : Lossy
Stream size : 402 MiB (6%)
Title : Русский дубляж
Language : Russian
Default : Yes
Forced : Yes
Audio #2
ID : 3
Format : AC-3
Format/Info : Audio Coding 3
Mode extension : CM (complete main)
Codec ID : A_AC3
Duration : 1h 27mn
Bit rate mode : Constant
Bit rate : 640 Kbps
Channel(s) : 6 channels
Channel positions : Front: L C R, Side: L R, LFE
Sampling rate : 48.0 KHz
Bit depth : 16 bits
Compression mode : Lossy
Stream size : 402 MiB (6%)
Title : Оригинал
Language : English
Default : No
Forced : No
Audio #3
ID : 4
Format : AC-3
Format/Info : Audio Coding 3
Mode extension : CM (complete main)
Codec ID : A_AC3
Duration : 1h 27mn
Bit rate mode : Constant
Bit rate : 448 Kbps
Channel(s) : 6 channels
Channel positions : Front: L C R, Side: L R, LFE
Sampling rate : 48.0 KHz
Bit depth : 16 bits
Compression mode : Lossy
Stream size : 281 MiB (4%)
Title : Украинский дубляж
Language : Ukrainian
Default : No
Forced : No

Скриншоты



Анимированные скриншоты для оценки 3Д-эффекта


Остальные раздачи этого фильма (4)
Благодарности релизеру (26)

Торрент:

Статус:

Размер:

Зарегистрирован   [ 2012-10-26 10:01 ]

проверено

6.55 GB

 
 Мнение о фильме (24)

1, 2  След.






Один из лучших.Звери прямо высовываются с экрана.Классно.
 

Спасибо! Мульт понравился, 3Д хорошее! Ржака вообщем!!!
 

Сюжет фильма подобен многозаходной спирали, динамика фильма
просто потрясает, краски, звук - выше всяких похвал.
3D - впечатляет. Спасибо релизеру и всем причастным к раздаче.
 

Супер мульт!
 

супер
 

супер-суперский,3Д отличнейшее. спасибо агромное!!!
 

спасибо за релиз)
зал был в восторге,а я считаю, что "не особо" - предсказуемо, но очень харизматичный капитан вытянул мульт.
 

Посмотрели мульт на LG42LM640T - качество и звук отличные!!! Огромное спасибо релизеру! Побольше таких раздач и в таком формате ! Ну и с Рождеством Христовым !!!
 

Отличный мульт. Обязательно качать и смотреть
 

Спасибо, хороший мульт.
 

спасибо отличный мультик.
 

Спасибо, отличный мульт, дочка очень рада.
 
Владимир 78 Профиль 26-Май-2013 14:44

я так и не понял одни пишут эфектов- вылетов нет другие пишут обратное кто посмотрел вылеты есть или нет
 
tamplier1902@mail.ru Профиль 04-Июн-2013 12:17

Вылетов нет, но эффектов мало и экран сплюснутый.
 

Вылетов нет. Мульт отличный.
 

Классный мульт! И 3D отличное! Скачивайте, не пожалеете!
 

НЕ ОЧЕНЬ!!!
 

mne ponravilosj
 

3d хорошее. Смотрел на LG
 

мне понравилось
 

Страница 1 из 2

1, 2  След.