Торренты   
 
 


Конвертация в 3Д Люди в чёрном III / Converting To 3D MiB3 [2012 г., BDrip, Anamorph OverUnder]

Рейтинг 3D:
4 голосов
6.7
Рейтинг фильма:
3 голосов
5.7
 
Вы должны быть авторизированы,
чтобы ставить оценки


Конвертация в 3Д Люди в чёрном III
Converting To 3D MiB3
--Год выпуска: 2012
Страна: США
Продолжительность: 00:01:31--Описание: В последнее время много фильмов стали конвертировать из 2Д в 3Д. (Что совсем не радует).
В данном ролике показаны и объясняются некоторые моменты получения 3Д картинки из 2Д картинки на примере фильма MiB3.--Формат 3D: Anamorph OverUnder (левый ракурс верхний)
Качество: BDrip
Контейнер: mkv
Видео: AVC / 1920х1080p / 23.976fps / 4288 Kbps
Аудио #1: Русский / AC3 / 2 ch / 192 Kbps / 48 KHz (Закадровый, мой)
Аудио #2: English / AC3 / 2 ch / 192 Kbps / 48 KHz--

MediaInfo:

Код:
General
Unique ID                      : 212562955618046926322051554653621094877 (0x9FEA22D95D6A1784BAAB0C2EC02289DD)
Complete name                  : G:\_3D\ConvertingTo3D.MiB3.mkv
Format                         : Matroska
Format version                 : Version 2
File size                      : 51.8 MiB
Duration                       : 1mn 31s
Overall bit rate               : 4 767 Kbps
Encoded date                   : UTC 2012-10-10 07:36:55
Writing application            : mkvmerge v4.0.0 ('The Stars were mine') сборка от Jun  6 2010 16:18:42
Writing library                : libebml v1.0.0 + libmatroska v1.0.0
Video
ID                             : 1
Format                         : AVC
Format/Info                    : Advanced Video Codec
Format profile                 : High@L4.1
Format settings, CABAC         : Yes
Format settings, ReFrames      : 4 frames
Codec ID                       : V_MPEG4/ISO/AVC
Duration                       : 1mn 31s
Bit rate                       : 4 288 Kbps
Width                          : 1 920 pixels
Height                         : 1 080 pixels
Display aspect ratio           : 16:9
Frame rate                     : 23.976 fps
Color space                    : YUV
Chroma subsampling             : 4:2:0
Bit depth                      : 8 bits
Scan type                      : Progressive
Bits/(Pixel*Frame)             : 0.086
Stream size                    : 46.6 MiB (90%)
Writing library                : x264 core 116 r2074 2641b9e
Encoding settings              : cabac=1 / ref=4 / deblock=1:-3:-3 / analyse=0x3:0x113 / me=umh / subme=9 / psy=1 / psy_rd=1.00:0.15 / mixed_ref=1 / me_range=32 / chroma_me=1 / trellis=2 / 8x8dct=1 / cqm=0 / deadzone=21,11 / fast_pskip=1 / chroma_qp_offset=-3 / threads=6 / sliced_threads=0 / nr=0 / decimate=1 / interlaced=0 / bluray_compat=0 / constrained_intra=0 / bframes=6 / b_pyramid=2 / b_adapt=2 / b_bias=0 / direct=3 / weightb=1 / open_gop=0 / weightp=2 / keyint=250 / keyint_min=23 / scenecut=40 / intra_refresh=0 / rc_lookahead=60 / rc=crf / mbtree=1 / crf=18.0 / qcomp=0.60 / qpmin=0 / qpmax=69 / qpstep=4 / vbv_maxrate=40000 / vbv_bufsize=40000 / crf_max=0.0 / nal_hrd=none / ip_ratio=1.40 / aq=1:0.70
Language                       : English
Default                        : No
Forced                         : No
Audio #1
ID                             : 2
Format                         : AC-3
Format/Info                    : Audio Coding 3
Mode extension                 : CM (complete main)
Format settings, Endianness    : Big
Codec ID                       : A_AC3
Duration                       : 1mn 31s
Bit rate mode                  : Constant
Bit rate                       : 192 Kbps
Channel(s)                     : 2 channels
Channel positions              : Front: L R
Sampling rate                  : 48.0 KHz
Bit depth                      : 16 bits
Compression mode               : Lossy
Stream size                    : 2.09 MiB (4%)
Language                       : Russian
Default                        : Yes
Forced                         : No
Audio #2
ID                             : 3
Format                         : AC-3
Format/Info                    : Audio Coding 3
Mode extension                 : CM (complete main)
Format settings, Endianness    : Big
Codec ID                       : A_AC3
Duration                       : 1mn 31s
Bit rate mode                  : Constant
Bit rate                       : 192 Kbps
Channel(s)                     : 2 channels
Channel positions              : Front: L R
Sampling rate                  : 48.0 KHz
Bit depth                      : 16 bits
Compression mode               : Lossy
Stream size                    : 2.09 MiB (4%)
Language                       : English
Default                        : No
Forced                         : No

Скриншоты

Благодарности релизеру (5)

Торрент:

Статус:

Размер:

Зарегистрирован   [ 2012-10-26 18:38 ]

проверено

52 MB

 
 Мнение о фильме (3)





Это обалденно. Жаль, что мало.
 

КЛАСС
 
евгений 2012 Профиль 05-Ноя-2012 22:55

Интересно, но ну уж очень мало по времени.