Торренты   
 
 

 

Титаник 3Д / Titanic 3D (Джеймс Кэмерон / James Cameron) [1997 (2012), BDrip, half1080p, Anamorph SideBySide]

Рейтинг 3D:
180 голосов
8.3
Рейтинг фильма:
179 голосов
8.8
 
Вы должны быть авторизированы,
чтобы ставить оценки


Титаник 3Д / Titanic 3D
Год выпуска: 1997
Страна: США (20th Century Fox, Paramount Pictures, Lightstorm Entertainment)
Жанр: Драма, Мелодрама
Продолжительность: 03:14:54
Перевод: Профессиональный (полное дублирование)
Режиссер: Джеймс Кэмерон / James Cameron
В ролях:
Джек Доусон - Леонардо ДиКаприо (Олег Куликович)
Роуз ДеВитт Бьюкейтер - Кейт Уинслет (Татьяна Иванова)
Кейлдон "Кэл" Хокли - Билли Зейн (Станислав Концевич)
Молли Браун - Кэти Бейтс (Елена Ставрогина)
Рут ДеВитт Бьюкейтер - Фрэнсис Фишер (Галина Чигинская)
Роуз (в старости) - Глория Стюарт (Людмила Ксенофонтова)
Брок Лаветт - Билл Пэкстон (Вадим Гущин)
Капитан Эдвард Джеймс Смит - Бернард Хилл (Анатолий Азо)
Спайсер Лавджой - Дэвид Уорнер (Геннадий Богачёв)
Томас Эндрюс - Виктор Гарбер (Николай Буров)
Брюс Исмей - Джонатан Хайд (Юрий Лазарев)
Лиззи Калверт - Сьюзи Эймис (Александра Кожевникова)
Льюис Бодайн - Льюис Абернати (Сергей Паршин)
Бобби Бьюэлл - Николас Каскон (Валерий Захарьев)
Анатолий Михайлович - Анатолий Сагалевич
Фабрицио - Дэнни Нуччи (Александр Баргман)
Томми Райан - Джейсон Бэрри (Сергей Паршин)
1-й офицер Мёрдок - Ивэн Стюарт (Анатолий Петров)
5-й офицер Гарольд Лоу - Йоан Гриффит
2-й офицер Лайтоллер - Джонатан Филлипс (Валерий Кухарешин)
Главный офицер Уайлд - Марк Линдсэй Чэпман
Квартирмейстер Роу - Ричард Грэхэм
Описание: Описание: Фильм о любви, которая потрясла весь мир и по праву может называться самым знаменитым фильмом мирового кинематографа. Звезды Голливуда Леонардо Ди Каприо и Кейт Уинслет блистают на экране в ролях молодых влюбленных Джека и Розы, которые находят друг друга в первом и последнем плавании "непотопляемого" "Титаника". Они не могли знать, что шикарный лайнер столкнется с айсбергом в холодных водах Северной Атлантики, и их страстная любовь превратится в схватку со смертью.
О фильме и ре-релизе 2012: 11 премий «Оскар», 4 премии «Золотой глобус» и множество других наград навечно вписали фильм Титаник в историю мирового кинематографа, а герои Леонардо ДиКаприо и Кейт Уинслет навсегда остались в сердцах миллионов людей по всему миру.
С момента величайшего кораблекрушения прошло ровно сто лет, но история Титаника еще не завершена. Признанный новатор в области передовых технологий и спецэффектов Джеймс Кэмерон вновь приглашает зрителей в кинотеатры. Всемирно-известная история любви, разворачивающаяся на фоне величайшей катастрофы прошлого века, еще никогда прежде не выглядела столь величественно и натурально. Новейшие достижения в области создания и передачи 3D-изображения позволят полнее ощутить невыдуманную трагедию гибели легендарного лайнера.
Хроника крушения «непотопляемого» Титаника вновь оживает в 3D!
Формат 3D: Anamorph SideBySide
Порядок ракурсов: Параллельная пара
Видео: AVC / 23,976 fps / 1920х1080p / 13.5 Mbps
Аудио №1: Русский / AC3 / 48 KHz / 5.1 ch / 448 Kbps (Дубляж)
Аудио №2: Английский / AC3 / 48 KHz / 5.1 ch / 640 Kbps (Оригинал)
Аудио №3: Русский / AC3 / 48 KHz / 5.1 ch / 384 Kbps (MVO - Киномания)
Аудио №4: Русский / AC3 / 48 KHz / 5.1 ch / 448 Kbps (DVO - П. Гланц и И. Королева)
Аудио №5: Русский / AC3 / 48 KHz / 5.1 ch / 448 Kbps (MVO - НТВ+)

MediaInfo

: General
Unique ID : 219074929318665606425753281738346376947 (0xA4D04BF0DB590EE1A1073FFB8AB0AEF3)
Complete name : Titanic 3D [Титаник 3D] (1997, 2012) DUB+2MVO+DVO hSbS 1080p.mkv
Format : Matroska
Format version : Version 2
File size : 22.0 GiB
Duration : 3h 14mn
Overall bit rate : 16.2 Mbps
Encoded date : UTC 2012-10-27 13:38:33
Writing application : mkvmerge v5.8.0 ('No Sleep / Pillow') built on Sep 2 2012 15:37:04
Writing library : libebml v1.2.3 + libmatroska v1.3.0
Video
ID : 1
Format : AVC
Format/Info : Advanced Video Codec
Format profile : High@L4.1
Format settings, CABAC : Yes
Format settings, ReFrames : 4 frames
Codec ID : V_MPEG4/ISO/AVC
Duration : 3h 14mn
Bit rate : 13.5 Mbps
Width : 1 920 pixels
Height : 1 080 pixels
Display aspect ratio : 16:9
Frame rate : 23.976 fps
Color space : YUV
Chroma subsampling : 4:2:0
Bit depth : 8 bits
Scan type : Progressive
Bits/(Pixel*Frame) : 0.272
Stream size : 18.4 GiB (83%)
Title : Титаник 3Д
Writing library : x264 core 128 r2216 198a7ea
Encoding settings : cabac=1 / ref=4 / deblock=1:-3:-3 / analyse=0x3:0x113 / me=umh / subme=9 / psy=1 / psy_rd=1.00:0.15 / mixed_ref=1 / me_range=32 / chroma_me=1 / trellis=2 / 8x8dct=1 / cqm=0 / deadzone=21,11 / fast_pskip=1 / chroma_qp_offset=-3 / threads=6 / lookahead_threads=1 / sliced_threads=0 / nr=0 / decimate=1 / interlaced=0 / bluray_compat=0 / constrained_intra=0 / bframes=4 / b_pyramid=2 / b_adapt=2 / b_bias=0 / direct=3 / weightb=1 / open_gop=0 / weightp=2 / keyint=250 / keyint_min=23 / scenecut=40 / intra_refresh=0 / rc_lookahead=60 / rc=crf / mbtree=1 / crf=17.0 / qcomp=0.60 / qpmin=0 / qpmax=69 / qpstep=4 / vbv_maxrate=40000 / vbv_bufsize=40000 / crf_max=0.0 / nal_hrd=none / ip_ratio=1.40 / aq=1:0.70
Default : Yes
Forced : Yes
Audio #1
ID : 2
Format : AC-3
Format/Info : Audio Coding 3
Mode extension : CM (complete main)
Codec ID : A_AC3
Duration : 3h 14mn
Bit rate mode : Constant
Bit rate : 448 Kbps
Channel(s) : 6 channels
Channel positions : Front: L C R, Side: L R, LFE
Sampling rate : 48.0 KHz
Bit depth : 16 bits
Compression mode : Lossy
Stream size : 625 MiB (3%)
Title : Дубляж
Language : Russian
Default : Yes
Forced : Yes
Audio #2
ID : 3
Format : AC-3
Format/Info : Audio Coding 3
Mode extension : CM (complete main)
Codec ID : A_AC3
Duration : 3h 14mn
Bit rate mode : Constant
Bit rate : 640 Kbps
Channel(s) : 6 channels
Channel positions : Front: L C R, Side: L R, LFE
Sampling rate : 48.0 KHz
Bit depth : 16 bits
Compression mode : Lossy
Stream size : 892 MiB (4%)
Title : Оригинал
Language : English
Default : No
Forced : No
Audio #3
ID : 4
Format : AC-3
Format/Info : Audio Coding 3
Mode extension : CM (complete main)
Codec ID : A_AC3
Duration : 3h 14mn
Bit rate mode : Constant
Bit rate : 384 Kbps
Channel(s) : 6 channels
Channel positions : Front: L C R, Side: L R, LFE
Sampling rate : 48.0 KHz
Bit depth : 16 bits
Compression mode : Lossy
Stream size : 535 MiB (2%)
Title : MVO - Киномания
Language : Russian
Default : No
Forced : No
Audio #4
ID : 5
Format : AC-3
Format/Info : Audio Coding 3
Mode extension : CM (complete main)
Codec ID : A_AC3
Duration : 3h 14mn
Bit rate mode : Constant
Bit rate : 448 Kbps
Channel(s) : 6 channels
Channel positions : Front: L C R, Side: L R, LFE
Sampling rate : 48.0 KHz
Bit depth : 16 bits
Compression mode : Lossy
Stream size : 625 MiB (3%)
Title : DVO - П.Гланц, И.Королёва
Language : Russian
Default : No
Forced : No
Audio #5
ID : 6
Format : AC-3
Format/Info : Audio Coding 3
Mode extension : CM (complete main)
Codec ID : A_AC3
Duration : 3h 14mn
Bit rate mode : Constant
Bit rate : 448 Kbps
Channel(s) : 6 channels
Channel positions : Front: L C R, Side: L R, LFE
Sampling rate : 48.0 KHz
Bit depth : 16 bits
Compression mode : Lossy
Stream size : 625 MiB (3%)
Title : MVO - НТВ+
Language : Russian
Default : No
Forced : No

Скриншоты




Анимированные скриншоты для оценки 3Д-эффекта



Остальные раздачи этого фильма (4)
Благодарности релизеру (88)

Торрент:

Статус:

Размер:

Зарегистрирован   [ 2012-10-27 21:46 ]

проверено

22.04 GB

 
 Мнение о фильме (45)

Пред.  1, 2, 3  След.






отлично
 

Нет слов! Просто супер!
 

3D удивило и порадовало.фильм замечательный качество на высоте.Спасибо
 

отличное качество, теперь этот фильм стал смотреть чаще
 
Евгений110852 Профиль 02-Ноя-2013 09:56

15 апреля 2012 исполнилось ровно 100 лет с того дня, как дно Атлантического океана обогатилось еще одним продуктом человеческой жадности и глупости.
В преддверии 100-летней годовщины крушения «Титаника», Джеймс Кэмерон выпустил свой фильм 15-летней давности в формате 3D.
Что там с пресловутым 3D? Признаемся честно, картинка не поразит бывалого завсегдатая трехмерных киносеансов, ибо «Титаник» не был изначально заточен под объемные спецэффекты, а, значит, заранее уступает современным картинам.Потратив на конвертацию ленты 60 недель и 18 миллионов долларов, Кэмерон доказал скептикам, что только он может не просто освежить картинку, но и вдохнуть новую жизнь в давно известное произведение.
Ну вот и все что можно об этом фильме сказать.
 

ash61,
подскажите пож. какой лучше ТИТАНИК скачать для просмотра на ТВ LG 660?, а то вес всё таки большой и не хочется ошибиться.
 

Laska, для Вашего (поляризационного) ТВ предпочтительны вертикальные анаморфы.
 

ash61, Спасибо, я уже почти скачала ваш релиз на 30,48 GB, немного осталось, надеюсь будет всё нормально, уже не терпится посмотреть) Потом напишу как впечатление.
 

ash61, Фильм СУПЕР!!!! Даже не ожидала , что будет в таком отличном качестве. Давно хотела его пересмотреть...а тут в 3 D. Получила огромное удовольствие от просмотра. Спасибо вам за ваши труды и за то, что дарите нам хорошее настроение такими фильмами.
 

Отличный фильм.БОЛЬШОЕ СПАСИБО)))
 

Как я уже писал:перекачиваю коллекцию,т.к винт накрылся)))
 

ПАЛЁТ НОРМАЛЬНЫЙ,СКАЧАЮ ОТПИШУСЬ
 

Лучший фильм в лучшем 3Д спасибо за раздачу.
 
масленница Профиль 19-Янв-2015 18:35

Реально очень крутое 3Д. И качество фильма радует.
 

Господа , дайте скорости ПЛЗ !
 

прошу изв ! ВСЁ ок !
 

Встаньте на раздачу пжл...
 

Блин, оценку фильму дали 180 человек, а "спасибо" сказали только 16.
Благодарные люди Россияне, офигеть...
 

ппц, скорость 200 кб/с(((
 

Ребята,помогите пожалуйста,скачал фильм,но он идет не навесь экран,переводиш в 3д,картинка только посрединеот краев большой отступ,что делать?
 

Страница 2 из 3

Пред.  1, 2, 3  След.