Торренты   
 
 


Новый Человек-паук / The Amazing Spider-Man (Марк Уэбб / Marc Webb) [2012 г., BDRip 1080p, Full OverUnder]

Рейтинг 3D:
132 голосов
6.2
Рейтинг фильма:
130 голосов
6.9
 
Вы должны быть авторизированы,
чтобы ставить оценки


Новый Человек-паук / The Amazing Spider-Man
Год выпуска: 2012
Страна: США
Жанр: фантастика, боевик, приключения
Продолжительность: 02:16:17
Перевод: Профессиональный (полное дублирование)
Режиссер: Марк Уэбб / Marc Webb
В ролях:Эндрю Гарфилд, Эмма Стоун, Рис Иванс, Дэнис Лири, Мартин Шин, Салли Филд, Эмбет Дэвидц, Кэмпбелл Скотт, Ирфан Кхан, Крис Зилка
Описание: В детстве Питер Паркер был оставлен своими родителями, и поэтому воспитывался дядей и тётей. Шли годы, Питер был обычным примерным школьником, подвергался нападкам хулиганов и был влюблён в свою одноклассницу Гвен Стэйси, которая сама втайне отвечала ему взаимностью. Но после укуса генетически изменённого паука, Питер получает невероятные сверхспособности и его жизнь меняется навсегда.
Однако его не перестаёт мучить вопрос о том, что случилось с его родителями. Он знакомится с давним другом и партнёром своего отца — генетиком Куртом Коннорсом, который вместе с отцом Питера разрабатывал формулу регенерации. Питер помогает её закончить, а Коннорс, всю жизнь мечтавший восстановить свою правую руку, вводит формулу себе и становится Ящером. Осознавая свою вину, Питер начинает новую жизнь в образе таинственного супергероя Человека-паука и становится грозой преступников, одновременно пытаясь найти способ остановить Коннорса.
Формат 3D: OverUnder
Видео: AVC, High@L5.0, 1920x1600, 23.976 fps, 7631 Кбит/сек
Аудио: Rus, AC-3, 6 каналов, 640 Кбит/сек, 48,0 КГц
Аудио: Ukr, AC-3, 6 каналов, 640 Кбит/сек, 48,0 КГц
Аудио: Eng, AC-3, 6 каналов, 448 Кбит/сек, 48,0 КГц

Скриншоты




MediaInfo

Общее
Уникальный идентификатор : 218357362433432786402077302946542931850 (0xA4461929745E67ECA32DA015C7104F8A)
Полное имя : E:\STEREO\The Amazing Spider-Man 1080p Rip by Dag13.mkv
Формат : Matroska
Версия формата : Version 2
Размер файла : 9,09 Гбайт
Продолжительность : 2 ч. 16 м.
Общий поток : 9549 Кбит/сек
Дата кодирования : UTC 2012-10-28 08:50:25
Программа кодирования : mkvmerge v3.4.0 ('Rapunzel') сборка от May 15 2010 09:38:20
Библиотека кодирования : libebml v0.8.0 + libmatroska v0.9.0
Видео
Идентификатор : 1
Формат : AVC
Формат/Информация : Advanced Video Codec
Профиль формата : High@L5.0
Параметр CABAC формата : Да
Параметр ReFrames формата : 4 кадра
Идентификатор кодека : V_MPEG4/ISO/AVC
Продолжительность : 2 ч. 16 м.
Битрейт : 7631 Кбит/сек
Ширина : 1920 пикселей
Высота : 1600 пикселей
Соотношение сторон : 1,200
Режим частоты кадров : Постоянный
Частота кадров : 23,976 кадра/сек
Цветовое пространство : YUV
Субдискретизация насыщенности : 4:2:0
Битовая глубина : 8 бит
Тип развёртки : Прогрессивная
Бит/(Пиксели*Кадры) : 0.104
Размер потока : 7,26 Гбайт (80%)
Заголовок : Rip by Dag13
Библиотека кодирования : x264 core 120 r2145 748fe16
Настройки программы : cabac=1 / ref=4 / deblock=1:-3:-2 / analyse=0x3:0x113 / me=umh / subme=9 / psy=1 / psy_rd=1.00:0.00 / mixed_ref=1 / me_range=16 / chroma_me=1 / trellis=1 / 8x8dct=1 / cqm=0 / deadzone=21,11 / fast_pskip=1 / chroma_qp_offset=-2 / threads=9 / sliced_threads=0 / nr=0 / decimate=1 / interlaced=0 / bluray_compat=0 / constrained_intra=0 / bframes=6 / b_pyramid=2 / b_adapt=2 / b_bias=0 / direct=3 / weightb=1 / open_gop=0 / weightp=2 / keyint=250 / keyint_min=23 / scenecut=40 / intra_refresh=0 / rc_lookahead=60 / rc=crf / mbtree=1 / crf=18.0 / qcomp=0.60 / qpmin=1 / qpmax=69 / qpstep=4 / ip_ratio=1.40 / aq=1:1.00
Язык : English
Default : Нет
Forced : Нет
Аудио #1
Идентификатор : 2
Формат : AC-3
Формат/Информация : Audio Coding 3
Расширение режима : CM (complete main)
Параметр Endianness формата : Big
Идентификатор кодека : A_AC3
Продолжительность : 2 ч. 16 м.
Вид битрейта : Постоянный
Битрейт : 640 Кбит/сек
Каналы : 6 каналов
Расположение каналов : Front: L C R, Side: L R, LFE
Частота : 48,0 КГц
Битовая глубина : 16 бит
Метод сжатия : С потерями
Размер потока : 624 Мбайт (7%)
Язык : Russian
Default : Да
Forced : Нет
Аудио #2
Идентификатор : 3
Формат : AC-3
Формат/Информация : Audio Coding 3
Расширение режима : CM (complete main)
Параметр Endianness формата : Big
Идентификатор кодека : A_AC3
Продолжительность : 2 ч. 16 м.
Вид битрейта : Постоянный
Битрейт : 640 Кбит/сек
Каналы : 6 каналов
Расположение каналов : Front: L C R, Side: L R, LFE
Частота : 48,0 КГц
Битовая глубина : 16 бит
Метод сжатия : С потерями
Размер потока : 624 Мбайт (7%)
Язык : Ukrainian
Default : Нет
Forced : Нет
Аудио #3
Идентификатор : 4
Формат : AC-3
Формат/Информация : Audio Coding 3
Расширение режима : CM (complete main)
Параметр Endianness формата : Big
Идентификатор кодека : A_AC3
Продолжительность : 2 ч. 16 м.
Вид битрейта : Постоянный
Битрейт : 448 Кбит/сек
Каналы : 6 каналов
Расположение каналов : Front: L C R, Side: L R, LFE
Частота : 48,0 КГц
Битовая глубина : 16 бит
Метод сжатия : С потерями
Размер потока : 437 Мбайт (5%)
Язык : English
Default : Нет
Forced : Нет
На встроенных ТВ-плейерах показывать НЕ будет!!!
Остальные раздачи этого фильма (4)
Благодарности релизеру (20)

Торрент:

Статус:

Размер:

Зарегистрирован   [ 2012-10-28 13:38 ]

проверено

9.09 GB

 
 Мнение о фильме (13)





Весьма не плохо фильм получился...
 

3D эффект никакой... Это рип такой или на блюхе так же? (LG LW650s)
 

_Evgen_, по кинотеатру помню, что нормальный 3D-эффект только в "полетах" челопаука по городу. Так-то просто небольшой объем. Для вменяемого 3D на ТВ - только ждать безполосого релиза от Dag13.
 

Челопук-школьник, спас Америку!
 

3D эффект!плохой! в не которых местах и то ели видно , смысл фильма не плохой и желательно фильм без черных полос
 

Первый раз фильм не понравился, а сейчас понравился. Не пойму то ли 3D повлияло то ли под настроение.
p.s. Я уже 4 раза отдал раздачу и сейчас раздаю 1Мб/с, так что не может быть целый день 7%.
 

эффектов минимум, ожидал большего да и фильм не айс(
 

да уж ну и где тут 3д ? Зачем выкладывать такие фильмы здесь, когда 3д здесь никакое, без 3д и то лучше смотреть.
 

что вы хотите от видео качество то всего 5528 Кбит/сек а надо хотябы 15000 ва то и в 4 раза больше видно рип криворукий школото делал
 

Radmyn, хватит уже показывать свою "чайничность", знаток!
А за :
рип криворукий школото делал
вообще не мешало бы дать время отдохнуть от трекера и подумать...
 

А мне очень понравилось. Особой жестокости нет, тема любви раскрыта отлично, правда уже с убийством родни порядком достали, нового до сих пор ничего не придумал Голливуд.
 

Классный фильм и 3д навысоте.Спасибо затруды)))
 

У старого паука сюжет куда лучше чем у нового, и 3D эффекты не произвели впечатления ((