Торренты   
 
 

 

Балбесы 3D / Olsen-banden på de bonede gulve 3D (Юрген Лердам / Jørgen Lerdam) [2010, мультфильм, комедия, криминал, BDrip, 1080p] Anamorph OverUnder / Вертикальная анаморфная стереопара

Рейтинг 3D:
4 голосов
7.0
Рейтинг фильма:
4 голосов
6.7
 
Вы должны быть авторизированы,
чтобы ставить оценки


Балбесы 3D / Olsen-banden på de bonede gulve/ Olsen Gang Gets Polished 3D
Год выпуска: 2010
Страна: Дания
Жанр: мультфильм, комедия, криминал
Продолжительность: 01:18:08
Перевод: Профессиональный (дублированный)
Русские субтитры: нет
Режиссер на русском: Юрген Лердам / Jørgen Lerdam
Роли озвучивали (дублировали):
Эгон Ольсен - Мартин Бух (Вадим Андреев)
Бенни Френдсон - Николай Коперникус
Кольд Дженсон - Эсбен Претцманн
Ённе Дженсон - Аннетт Хеик (Инна Королёва)
Холм - Йонас Шмидт (Иван Жарков)
Халлендсен - Сёрен Сэттер-Лассен Описание:Эгон Ольсен — криминальный гений и закоренелый преступник. Его постоянные подельники — Бенни и Кельд, парочка глупых и абсолютно безвредных воришек, никогда не прибегающих к насилию. К сожалению, филигранно продуманные операции Ольсена терпят фиаско с завидной регулярностью, но всякий раз, отмотав срок, компания неунывающих неудачников объединяется, чтобы реализовывать очередной «гениальный» план обогащения.
На сей раз банда Ольсена решает похитить мемориальное перо, которым были написаны лучшие произведения легендарного сказочника Ганса Христиана Андерсена. Но хитроумная операция опять пошла не тем путем! В дело оказались впутаны китайский магнат, датская королева и продажный премьер-министр. Удастся ли Эгону избежать ареста? Или вместо увильнувшей от полиции «крупной рыбы» ему опять придется выступить «козлом отпущения»?..

Техн. детали съёмки

Премьера: 15 октября 2010 (24 марта 2011)
Бюджет: $278 000
Кассовые сборы: $128 080
Релиз на DVD и Blu-Ray: 20 апреля 2011

. .
Проверено на встроенном плейере ТВ LG LW 650S
--Качество: BDrip
Контейнер: MKV
Формат 3D: Anamorph OverUnder / Вертикальная анаморфная стереопара
Порядок ракурсов: левый ракурс первый
Видео кодек: x264
Аудио кодек: AC3-Видео: AVC / 23,976 fps / 1920х1080p / 7785 Kbps
Аудио 1: Русский / AC3 / 48 KHz / 5.1 ch / 448 Kbps (Дубляж - BD EUR)
Аудио 2: Датский / AC3 / 48 KHz / 5.1 ch / 448 Kbps
Субтитры: нет

MediaInfo

Общее
Уникальный идентификатор : 174684143134966930495186385118691248543 (0x836AF1347FD2B5ADB193647B489EC99F)
Полное имя : E:\3Д мультики\Olsen Gang Gets Polished (3D)2012.halfOU.1080p.AC3(m@rik05).mkv
Формат : Matroska
Версия формата : Version 2
Размер файла : 4,84 Гбайт
Продолжительность : 1 ч. 18 м.
Общий поток : 8857 Кбит/сек
Название фильма : Olsen Gang Gets Polished 3D(2010) 3D-RuGroup
Дата кодирования : UTC 2012-10-29 10:19:08
Программа кодирования : mkvmerge v5.8.0 ('No Sleep / Pillow') built on Sep 2 2012 15:37:04
Библиотека кодирования : libebml v1.2.3 + libmatroska v1.3.0
Видео
Идентификатор : 1
Формат : AVC
Формат/Информация : Advanced Video Codec
Профиль формата : High@L4.1
Параметр CABAC формата : Да
Параметр ReFrames формата : 4 кадра
Идентификатор кодека : V_MPEG4/ISO/AVC
Продолжительность : 1 ч. 18 м.
Битрейт : 7785 Кбит/сек
Ширина : 1920 пикселей
Высота : 1080 пикселей
Соотношение сторон : 16:9
Режим частоты кадров : Постоянный
Частота кадров : 23,976 кадра/сек
Цветовое пространство : YUV
Субдискретизация насыщенности : 4:2:0
Битовая глубина : 8 бит
Тип развёртки : Прогрессивная
Бит/(Пиксели*Кадры) : 0.157
Размер потока : 4,25 Гбайт (88%)
Заголовок : By m@rik05
Библиотека кодирования : x264 core 120 r2164 da19765
Настройки программы : cabac=1 / ref=4 / deblock=1:-3:-3 / analyse=0x3:0x133 / me=umh / subme=9 / psy=1 / psy_rd=1.00:0.05 / mixed_ref=1 / me_range=16 / chroma_me=1 / trellis=2 / 8x8dct=1 / cqm=0 / deadzone=21,11 / fast_pskip=1 / chroma_qp_offset=-3 / threads=12 / sliced_threads=0 / nr=0 / decimate=1 / interlaced=0 / bluray_compat=0 / constrained_intra=0 / bframes=6 / b_pyramid=2 / b_adapt=2 / b_bias=0 / direct=3 / weightb=1 / open_gop=0 / weightp=2 / keyint=250 / keyint_min=23 / scenecut=40 / intra_refresh=0 / rc_lookahead=60 / rc=crf / mbtree=1 / crf=16.0 / qcomp=0.60 / qpmin=10 / qpmax=69 / qpstep=4 / vbv_maxrate=40000 / vbv_bufsize=40000 / crf_max=0.0 / nal_hrd=none / frame-packing=4 / ip_ratio=1.40 / aq=1:0.70
Язык : Russian
Default : Нет
Forced : Нет
Аудио #1
Идентификатор : 2
Формат : AC-3
Формат/Информация : Audio Coding 3
Расширение режима : CM (complete main)
Параметр Endianness формата : Big
Идентификатор кодека : A_AC3
Продолжительность : 1 ч. 18 м.
Вид битрейта : Постоянный
Битрейт : 448 Кбит/сек
Каналы : 6 каналов
Расположение каналов : Front: L C R, Side: L R, LFE
Частота : 48,0 КГц
Битовая глубина : 16 бит
Метод сжатия : С потерями
Размер потока : 251 Мбайт (5%)
Заголовок : AC3 5.1 @ 448 kbps - Дублированный, Blu-ray CEE
Язык : Russian
Default : Да
Forced : Нет
Аудио #2
Идентификатор : 3
Формат : AC-3
Формат/Информация : Audio Coding 3
Расширение режима : CM (complete main)
Параметр Endianness формата : Big
Идентификатор кодека : A_AC3
Продолжительность : 1 ч. 18 м.
Вид битрейта : Постоянный
Битрейт : 448 Кбит/сек
Каналы : 6 каналов
Расположение каналов : Front: L C R, Side: L R, LFE
Частота : 48,0 КГц
Битовая глубина : 16 бит
Метод сжатия : С потерями
Размер потока : 251 Мбайт (5%)
Заголовок : AC3 5.1 @ 448 kbps - Оригинал
Язык : Danish
Default : Нет
Forced : Нет
Меню
00:00:00.000 : en:00:00:00.000
00:07:51.054 : en:00:07:51.054
00:14:28.993 : en:00:14:28.993
00:21:33.792 : en:00:21:33.792
00:29:43.991 : en:00:29:43.991
00:37:08.393 : en:00:37:08.393
00:44:17.530 : en:00:44:17.530
00:50:41.330 : en:00:50:41.330
00:56:05.070 : en:00:56:05.070
01:02:19.277 : en:01:02:19.277
01:07:57.282 : en:01:07:57.282
01:13:51.594 : en:01:13:51.594

Log x264

Скриншоты

Благодарности релизеру (12)

Торрент:

Статус:

Размер:

Зарегистрирован   [ 2012-10-29 20:47 ]

проверено

4.84 GB

 
 Мнение о фильме (1)





Спасибо всем, принявшим участие в раздаче, за фильм.
Режиссер фильма последователен до конца: в постскриптуме даже
не упомянул неудачника Эгона Ольсена.
3D понравилось.