Торренты   
 
 


Новый Человек-паук / The Amazing Spider-Man (Марк Уэбб / Marc Webb) [2012, BDrip, half1080p, Anamorph SideBySide]

Рейтинг 3D:
132 голосов
6.2
Рейтинг фильма:
130 голосов
6.9
 
Вы должны быть авторизированы,
чтобы ставить оценки


Новый Человек-паук / The Amazing Spider-Man
Год выпуска: 2012
Страна: США
Жанр: фантастика, боевик, приключения
Продолжительность: 02:16:17
Перевод: Профессиональный (полное дублирование)
Режиссер: Марк Уэбб / Marc Webb
В ролях: Эндрю Гарфилд, Эмма Стоун, Рис Иванс, Дэнис Лири, Мартин Шин, Салли Филд, Эмбет Дэвидц, Кэмпбелл Скотт, Ирфан Кхан, Крис Зилка
Описание: В детстве Питер Паркер был оставлен своими родителями, и поэтому воспитывался дядей и тётей. Шли годы, Питер был обычным примерным школьником, подвергался нападкам хулиганов и был влюблён в свою одноклассницу Гвен Стэйси, которая сама втайне отвечала ему взаимностью. Но после укуса генетически изменённого паука, Питер получает невероятные сверхспособности и его жизнь меняется навсегда.
Однако его не перестаёт мучить вопрос о том, что случилось с его родителями. Он знакомится с давним другом и партнёром своего отца — генетиком Куртом Коннорсом, который вместе с отцом Питера разрабатывал формулу регенерации. Питер помогает её закончить, а Коннорс, всю жизнь мечтавший восстановить свою правую руку, вводит формулу себе и становится Ящером. Осознавая свою вину, Питер начинает новую жизнь в образе таинственного супергероя Человека-паука и становится грозой преступников, одновременно пытаясь найти способ остановить Коннорса.
Формат 3D: Anamorph SideBySide / Горизонтальная анаморфная стереопара
Порядок ракурсов: левый ракурс первый
Видео: AVC, High@L4.1, 1920x1080, 23.976 fps, 6 113 Kbps
Аудио:
№1 - Русский дублированный перевод / AC3 / 48 KHz / 5.1 ch / 640 Kbps
№2 - Английский оригинальный / AC3 / 48 KHz / 5.1 ch / 640 Kbps
№3 - Украинский дублированный перевод / AC3 / 48 KHz / 5.1 ch / 640 Kbps
№4 - Режиссёрский комментарий / AC3 / 48 KHz / 2 ch / 192 Kbps
Субтитры (вшитые):
№1 - Русские форсированные
№2 - Русские полные
№3 - Английские полные
№4 - Русский комментарий
№5 - Английский комментарий
Дополнительная информация:
Поскольку исходник данного фильма был очень тёмным, многих деталей кодек вообще не видел и, соответственно, кодировал как "тёмное пятно"... Слегка подкорректировал скриптом изображение и получил совсем другую картинку:

анимированные скрины для сравнения как было и как стало:








MediaInfo

General
Unique ID : 216504083333461545595550487941389856278 (0xA2E12B729984789E9D47BAF22CB9AE16)
Complete name : The Amazing Spider-Man 3D [Новый Человек-паук 3D] (2012) DUB hSbS 1080p.mkv
Format : Matroska
Format version : Version 2
File size : 7.99 GiB
Duration : 2h 16mn
Overall bit rate : 8 392 Kbps
Encoded date : UTC 2012-10-31 14:00:18
Writing application : mkvmerge v5.8.0 ('No Sleep / Pillow') built on Sep 2 2012 15:37:04
Writing library : libebml v1.2.3 + libmatroska v1.3.0
Video
ID : 1
Format : AVC
Format/Info : Advanced Video Codec
Format profile : High@L4.1
Format settings, CABAC : Yes
Format settings, ReFrames : 4 frames
Codec ID : V_MPEG4/ISO/AVC
Duration : 2h 16mn
Bit rate : 6 113 Kbps
Width : 1 920 pixels
Height : 1 080 pixels
Display aspect ratio : 16:9
Frame rate : 23.976 fps
Color space : YUV
Chroma subsampling : 4:2:0
Bit depth : 8 bits
Scan type : Progressive
Bits/(Pixel*Frame) : 0.123
Stream size : 5.82 GiB (73%)
Writing library : x264 core 128 r2216 198a7ea
Encoding settings : cabac=1 / ref=4 / deblock=1:-3:-3 / analyse=0x3:0x113 / me=umh / subme=9 / psy=1 / psy_rd=1.00:0.15 / mixed_ref=1 / me_range=32 / chroma_me=1 / trellis=2 / 8x8dct=1 / cqm=0 / deadzone=21,11 / fast_pskip=1 / chroma_qp_offset=-3 / threads=6 / lookahead_threads=1 / sliced_threads=0 / nr=0 / decimate=1 / interlaced=0 / bluray_compat=0 / constrained_intra=0 / bframes=4 / b_pyramid=2 / b_adapt=2 / b_bias=0 / direct=3 / weightb=1 / open_gop=0 / weightp=2 / keyint=250 / keyint_min=23 / scenecut=40 / intra_refresh=0 / rc_lookahead=60 / rc=crf / mbtree=1 / crf=17.0 / qcomp=0.60 / qpmin=0 / qpmax=69 / qpstep=4 / vbv_maxrate=40000 / vbv_bufsize=40000 / crf_max=0.0 / nal_hrd=none / ip_ratio=1.40 / aq=1:0.70
Language : English
Default : Yes
Forced : No
Audio #1
ID : 2
Format : AC-3
Format/Info : Audio Coding 3
Mode extension : CM (complete main)
Codec ID : A_AC3
Duration : 2h 16mn
Bit rate mode : Constant
Bit rate : 640 Kbps
Channel(s) : 6 channels
Channel positions : Front: L C R, Side: L R, LFE
Sampling rate : 48.0 KHz
Bit depth : 16 bits
Compression mode : Lossy
Stream size : 624 MiB (8%)
Title : Русский дубляж
Language : Russian
Default : Yes
Forced : Yes
Audio #2
ID : 3
Format : AC-3
Format/Info : Audio Coding 3
Mode extension : CM (complete main)
Codec ID : A_AC3
Duration : 2h 16mn
Bit rate mode : Constant
Bit rate : 640 Kbps
Channel(s) : 6 channels
Channel positions : Front: L C R, Side: L R, LFE
Sampling rate : 48.0 KHz
Bit depth : 16 bits
Compression mode : Lossy
Stream size : 624 MiB (8%)
Title : Оригинал
Language : English
Default : No
Forced : No
Audio #3
ID : 4
Format : AC-3
Format/Info : Audio Coding 3
Mode extension : CM (complete main)
Codec ID : A_AC3
Duration : 2h 16mn
Bit rate mode : Constant
Bit rate : 640 Kbps
Channel(s) : 6 channels
Channel positions : Front: L C R, Side: L R, LFE
Sampling rate : 48.0 KHz
Bit depth : 16 bits
Compression mode : Lossy
Stream size : 624 MiB (8%)
Title : Украинский дубляж
Language : Ukrainian
Default : No
Forced : No
Audio #4
ID : 5
Format : AC-3
Format/Info : Audio Coding 3
Format profile : Dolby Digital
Mode extension : CM (complete main)
Codec ID : A_AC3
Duration : 2h 16mn
Bit rate mode : Constant
Bit rate : 192 Kbps
Channel(s) : 2 channels
Channel positions : Front: L R
Sampling rate : 48.0 KHz
Bit depth : 16 bits
Compression mode : Lossy
Stream size : 187 MiB (2%)
Title : Режиссёрский комментарий
Language : English
Default : No
Forced : No
Text #1
ID : 6
Format : UTF-8
Codec ID : S_TEXT/UTF8
Codec ID/Info : UTF-8 Plain Text
Title : Русские форсированные
Language : Russian
Default : Yes
Forced : Yes
Text #2
ID : 7
Format : UTF-8
Codec ID : S_TEXT/UTF8
Codec ID/Info : UTF-8 Plain Text
Title : Русские полные
Language : Russian
Default : No
Forced : No
Text #3
ID : 8
Format : UTF-8
Codec ID : S_TEXT/UTF8
Codec ID/Info : UTF-8 Plain Text
Title : Английские полные
Language : English
Default : No
Forced : No
Text #4
ID : 9
Format : UTF-8
Codec ID : S_TEXT/UTF8
Codec ID/Info : UTF-8 Plain Text
Title : Русский комментарий
Language : Russian
Default : No
Forced : No
Text #5
ID : 10
Format : UTF-8
Codec ID : S_TEXT/UTF8
Codec ID/Info : UTF-8 Plain Text
Title : Английский комментарий
Language : English
Default : No
Forced : No

Скриншоты




Анимированные скриншоты для оценки 3Д-эффекта





Фильм перезалит 31.10.2012 - исправлены недостатки изображения источника.
Просьба перекачать торрент.
Остальные раздачи этого фильма (4)
Благодарности релизеру (36)

Торрент:

Статус:

Размер:

Зарегистрирован   [ 2012-10-31 18:18 ]

проверено

7.99 GB

 
 Мнение о фильме (13)





Весьма не плохо фильм получился...
 

3D эффект никакой... Это рип такой или на блюхе так же? (LG LW650s)
 

_Evgen_, по кинотеатру помню, что нормальный 3D-эффект только в "полетах" челопаука по городу. Так-то просто небольшой объем. Для вменяемого 3D на ТВ - только ждать безполосого релиза от Dag13.
 

Челопук-школьник, спас Америку!
 

3D эффект!плохой! в не которых местах и то ели видно , смысл фильма не плохой и желательно фильм без черных полос
 

Первый раз фильм не понравился, а сейчас понравился. Не пойму то ли 3D повлияло то ли под настроение.
p.s. Я уже 4 раза отдал раздачу и сейчас раздаю 1Мб/с, так что не может быть целый день 7%.
 

эффектов минимум, ожидал большего да и фильм не айс(
 

да уж ну и где тут 3д ? Зачем выкладывать такие фильмы здесь, когда 3д здесь никакое, без 3д и то лучше смотреть.
 

что вы хотите от видео качество то всего 5528 Кбит/сек а надо хотябы 15000 ва то и в 4 раза больше видно рип криворукий школото делал
 

Radmyn, хватит уже показывать свою "чайничность", знаток!
А за :
рип криворукий школото делал
вообще не мешало бы дать время отдохнуть от трекера и подумать...
 

А мне очень понравилось. Особой жестокости нет, тема любви раскрыта отлично, правда уже с убийством родни порядком достали, нового до сих пор ничего не придумал Голливуд.
 

Классный фильм и 3д навысоте.Спасибо затруды)))
 

У старого паука сюжет куда лучше чем у нового, и 3D эффекты не произвели впечатления ((