Торренты   
 
 

 

В поисках Немо / Finding Nemo (Эндрю Стэнтон, Ли Анкрич) [2003 г.,Full OverUnder]

Рейтинг 3D:
50 голосов
8.6
Рейтинг фильма:
49 голосов
8.8
 
Вы должны быть авторизированы,
чтобы ставить оценки


В поисках Немо / Finding Nemo
Год выпуска: 2003
Страна: Австралия , США
Жанр: Мультфильм, Приключения, Комедия, Мелодрама, Семейный
Продолжительность: 01:40:54
Перевод: Профессиональный (полное дублирование)
Режиссер: Эндрю Стэнтон, Ли Анкрич
В ролях: Альберт Брукс, Эллен ДеДженерес, Александр Гулд, Уиллем Дефо, Эрик Бана, Эллисон Джэнни, Остин Пендлтон, Стивен Рут, Викки Льюис, Джеффри Раш, Элизабет Перкинс, Джо Рэнфт
Описание: Среди прекрасных тропических морских стихий, в районе Большого барьерного рифа в уединении живет рыба-клоун по имени Марлин. Он растит своего единственного сыночка Немо. Океан и существующие в нем опасности очень страшат Марлина, и он как может ограждает сына от них, но молодой Немо, страдающий излишним любопытством, очень хочет разузнать побольше о таинственном рифе, рядом с которым они живут.
Когда Немо по иронии судьбы оказывается вдалеке от дома, да и еще сталкивается с угрозой стать обедом рыбы-танка, Марлин отправляется на поиски сына. Но Марлин, конечно же, понимает, что героический спасатель из него не получится и просит о помощи в поисках, Дори, королевскую синюю рыбу, которая хоть и страдает от того, что почти ничего не помнит, но добрее ее не отыскать во всем безбрежном океане!
Итак, наши герои отправляются в путешествие, в котором их подкарауливают многочисленные трудности и опасности…
Сэмпл: http://www.sendspace.com/file/59s8zz
Качество: BDrip
Контейнер: MKV
Формат 3D: OverUnder / Вертикальная стереопара
Порядок ракурсов: левый ракурс первый
Видео кодек: x264
Аудио кодек: AC3 , DTS
Видео: AVC, High@L5.0, 1920x2160, 23.976 fps, 19.3 Mbps
Аудио: Русский / AC3 / 48 KHz / 5.1 ch / 384 Kbps (Дубляж)
Аудио 2: Русский / DTS / 48 KHz / 7.1 ch / 3955 Kbps (MVO - Супербит)
Аудио 3: Английский / DTS / 48 KHz / 7.1 ch / 3955 Kbps
ВНИМАНИЕ ! На встроенных ТВ-плейерах работать не будет!!!

MediaInfo

General
Unique ID : 194905612130496028071056765598910631990 (0x92A17499E2FE869EB71BA94B74C3D036)
Complete name : D:\закачки\Finding Nemo.mkv
Format : Matroska
Format version : Version 2
File size : 19.9 GiB
Duration : 1h 40mn
Overall bit rate mode : Variable
Overall bit rate : 28.2 Mbps
Encoded date : UTC 2012-10-30 19:57:22
Writing application : mkvmerge v3.4.0 ('Rapunzel') сборка от May 15 2010 09:38:20
Writing library : libebml v0.8.0 + libmatroska v0.9.0
Video
ID : 1
Format : AVC
Format/Info : Advanced Video Codec
Format profile : High@L5.0
Format settings, CABAC : Yes
Format settings, ReFrames : 4 frames
Codec ID : V_MPEG4/ISO/AVC
Duration : 1h 40mn
Bit rate : 19.3 Mbps
Width : 1 920 pixels
Height : 2 160 pixels
Display aspect ratio : 0.889
Frame rate : 23.976 fps
Color space : YUV
Chroma subsampling : 4:2:0
Bit depth : 8 bits
Scan type : Progressive
Bits/(Pixel*Frame) : 0.195
Stream size : 13.6 GiB (69%)
Title : Rip by SeRoGa00
Writing library : x264 core 128 r2216kMod 198a7ea
Encoding settings : cabac=1 / ref=4 / deblock=1:-3:-3 / analyse=0x3:0x113 / me=umh / subme=9 / psy=1 / fade_compensate=0.00 / psy_rd=1.00:0.15 / mixed_ref=1 / me_range=16 / chroma_me=1 / trellis=2 / 8x8dct=1 / cqm=0 / deadzone=21,11 / fast_pskip=1 / chroma_qp_offset=-3 / threads=9 / lookahead_threads=1 / sliced_threads=0 / nr=0 / decimate=1 / interlaced=0 / bluray_compat=0 / constrained_intra=0 / bframes=6 / b_pyramid=2 / b_adapt=2 / b_bias=0 / direct=3 / weightb=1 / open_gop=0 / weightp=2 / keyint=250 / keyint_min=23 / scenecut=40 / intra_refresh=0 / rc_lookahead=60 / rc=crf / mbtree=1 / crf=18.0000 / qcomp=0.60 / qpmin=10 / qpmax=69 / qpstep=4 / vbv_maxrate=40000 / vbv_bufsize=40000 / crf_max=0.0 / nal_hrd=none / ip_ratio=1.40 / aq=1:1.00
Language : English
Default : Yes
Forced : No
Audio #1
ID : 2
Format : AC-3
Format/Info : Audio Coding 3
Mode extension : CM (complete main)
Format settings, Endianness : Big
Codec ID : A_AC3
Duration : 1h 40mn
Bit rate mode : Constant
Bit rate : 384 Kbps
Channel(s) : 6 channels
Channel positions : Front: L C R, Side: L R, LFE
Sampling rate : 48.0 KHz
Bit depth : 16 bits
Compression mode : Lossy
Stream size : 277 MiB (1%)
Default : Yes
Forced : No
Audio #2
ID : 3
Format : DTS
Format/Info : Digital Theater Systems
Format profile : MA / Core
Codec ID : A_DTS
Duration : 1h 40mn
Bit rate mode : Variable
Bit rate : 3 955 Kbps / 1 510 Kbps
Channel(s) : 8 channels / 6 channels
Channel positions : Front: L C R, Side: L R, Back: L R, LFE / Front: L C R, Side: L R, LFE
Sampling rate : 48.0 KHz
Bit depth : 24 bits
Compression mode : Lossless / Lossy
Language : Russian
Default : No
Forced : No
Audio #3
ID : 4
Format : DTS
Format/Info : Digital Theater Systems
Format profile : MA / Core
Codec ID : A_DTS
Duration : 1h 40mn
Bit rate mode : Variable
Bit rate : 3 955 Kbps / 1 510 Kbps
Channel(s) : 8 channels / 6 channels
Channel positions : Front: L C R, Side: L R, Back: L R, LFE / Front: L C R, Side: L R, LFE
Sampling rate : 48.0 KHz
Bit depth : 24 bits
Compression mode : Lossless / Lossy
Language : English
Default : No
Forced : No

Скриншоты


Остальные раздачи этого фильма (2)
Благодарности релизеру (8)

Торрент:

Статус:

Размер:

Зарегистрирован   [ 2012-10-31 01:09 ]

проверено

19.85 GB

 
 Мнение о фильме (9)





Сюжет - прекрасен!
3D - отличное!
Смотрится на одном дыхании.
Диалог 150-летней черепахи, великолепно сдублированный HDTV (edit), буквально
взрывает сюжет и уже не отпускает до самого конца фильма.
Спасибо.
 

полностью согласен с MalSeMa !!!!!! СПАСИБО !!!!!!!!!!
 

я в очень доволен !!!!
 
евгений 2012 Профиль 05-Дек-2012 20:31

3Д - Очень хорошо. Мульт - добротный!!!
 

Благодарю за чудный мульт !!!
 

Очень хороший мультик
 

хороший добрый мультик ,замечательное 3D.глубокое обьёмное,болше вылетов,но посмтрел с огромным удовольствием всем большое спасибо
 

СПАСИБО. Один из самых любимых мультиков моей дочери. Смотрели уже много раз в 2D. Сейчас посмотрели в 3D. Шикарно! В 3D мульт стал еще лучше. Всем рекомендую к просмотру.
 

Согласен с хорошими отзывами.