Торренты   
 
 

 

Цунами / Bait [2012, BDrip, half1080p, Anamorph SideBySide]

Рейтинг 3D:
91 голосов
7.3
Рейтинг фильма:
81 голосов
6.0
 
Вы должны быть авторизированы,
чтобы ставить оценки


Цунами / Bait
Год выпуска: 2012
Страна: Австралия, Сингапур (Anchor Bay Films, Darclight, Screen Australia, Media Development Authority of Singapore)
Жанр: Ужасы, Триллер, Боевик
Продолжительность: 01:33:08
Перевод: Профессиональный (полное дублирование)
Режиссер: Кимбл Рендалл / Kimble Rendall
Роли исполняли (дублировали): Шарни Винсон (Анастасия Нестеренко), Завьер Сэмюэл (Сергей Смирнов), Фиби Тонкин, Джулиан МакМэхон, Кариба Хейн, Алекс Расселл (Даниил Эльдаров), Линкольн Льюис, Элис Паркинсон, Дэниэл Уилли, Ричард Бранкатисано, Дэмиен Гарви, Мартин Сакс (Сергей Чихачев), Николас МакКаллум, Адриан Пэнг, Ци Юйу ...
Описание: Чудовищное цунами обрушивается на курортный город. Из морских глубин на затопленные улицы вырываются голодные и жаждущие крови акулы. Начинается охота. Оказавшись в ловушке стихии, чудом уцелевшие люди пытаются выжить. Сможет ли Джош спасти жизнь девушки, которую он всегда любил, но однажды уже потерял?
Формат 3D: Anamorph SideBySide / Горизонтальная анаморфная стереопара
Порядок ракурсов: левый ракурс первый
Видео: AVC, High@L4.1, 1920x1080, 23.976 fps, 12.1 Mbps
Аудио:
№1 - Русский дублированный перевод / AC3 / 48 KHz / 5.1 ch / 640 Kbps
№2 - Английский оригинальный / AC3 / 48 KHz / 5.1 ch / 640 Kbps
Субтитры: Русские полные (вшитые .srt)

MediaInfo

General
Unique ID : 203133146426086262192556606934992892650 (0x98D2055C5239E6169D33B0F6F88532EA)
Complete name : Bait 3D [Цунами 3D] (2012) DUB hSbS 1080p.mkv
Format : Matroska
Format version : Version 2
File size : 8.91 GiB
Duration : 1h 33mn
Overall bit rate : 13.7 Mbps
Encoded date : UTC 2012-11-01 05:44:52
Writing application : mkvmerge v5.8.0 ('No Sleep / Pillow') built on Sep 2 2012 15:37:04
Writing library : libebml v1.2.3 + libmatroska v1.3.0
Video
ID : 1
Format : AVC
Format/Info : Advanced Video Codec
Format profile : High@L4.1
Format settings, CABAC : Yes
Format settings, ReFrames : 4 frames
Codec ID : V_MPEG4/ISO/AVC
Duration : 1h 33mn
Bit rate : 12.1 Mbps
Width : 1 920 pixels
Height : 1 080 pixels
Display aspect ratio : 16:9
Frame rate : 23.976 fps
Color space : YUV
Chroma subsampling : 4:2:0
Bit depth : 8 bits
Scan type : Progressive
Bits/(Pixel*Frame) : 0.244
Stream size : 7.90 GiB (89%)
Writing library : x264 core 128 r2216 198a7ea
Encoding settings : cabac=1 / ref=4 / deblock=1:-3:-3 / analyse=0x3:0x113 / me=umh / subme=9 / psy=1 / psy_rd=1.00:0.15 / mixed_ref=1 / me_range=32 / chroma_me=1 / trellis=2 / 8x8dct=1 / cqm=0 / deadzone=21,11 / fast_pskip=1 / chroma_qp_offset=-3 / threads=6 / lookahead_threads=1 / sliced_threads=0 / nr=0 / decimate=1 / interlaced=0 / bluray_compat=0 / constrained_intra=0 / bframes=4 / b_pyramid=2 / b_adapt=2 / b_bias=0 / direct=3 / weightb=1 / open_gop=0 / weightp=2 / keyint=250 / keyint_min=23 / scenecut=40 / intra_refresh=0 / rc_lookahead=60 / rc=crf / mbtree=1 / crf=17.0 / qcomp=0.60 / qpmin=0 / qpmax=69 / qpstep=4 / vbv_maxrate=40000 / vbv_bufsize=40000 / crf_max=0.0 / nal_hrd=none / ip_ratio=1.40 / aq=1:0.70
Language : English
Default : Yes
Forced : No
Audio #1
ID : 2
Format : AC-3
Format/Info : Audio Coding 3
Mode extension : CM (complete main)
Codec ID : A_AC3
Duration : 1h 33mn
Bit rate mode : Constant
Bit rate : 640 Kbps
Channel(s) : 6 channels
Channel positions : Front: L C R, Side: L R, LFE
Sampling rate : 48.0 KHz
Bit depth : 16 bits
Compression mode : Lossy
Stream size : 426 MiB (5%)
Title : Дублированный перевод
Language : Russian
Default : Yes
Forced : Yes
Audio #2
ID : 3
Format : AC-3
Format/Info : Audio Coding 3
Mode extension : CM (complete main)
Codec ID : A_AC3
Duration : 1h 33mn
Bit rate mode : Constant
Bit rate : 640 Kbps
Channel(s) : 6 channels
Channel positions : Front: L C R, Side: L R, LFE
Sampling rate : 48.0 KHz
Bit depth : 16 bits
Compression mode : Lossy
Stream size : 426 MiB (5%)
Title : Оригинал
Language : English
Default : No
Forced : No
Text
ID : 4
Format : UTF-8
Codec ID : S_TEXT/UTF8
Codec ID/Info : UTF-8 Plain Text
Title : Русские полные
Language : Russian
Default : No
Forced : No

Анимированные скриншоты для оценки 3Д-эффекта




Остальные раздачи этого фильма (3)
Благодарности релизеру (17)

Торрент:

Статус:

Размер:

Зарегистрирован   [ 2012-11-01 10:54 ]

проверено

8.91 GB

 
 Мнение о фильме (35)

1, 2  След.






Облога жуть, всё ясно с фильмом, аля Асулум.
 
Президент Гондураса Профиль 24-Сен-2012 21:35

3d хорошее, но какая чушь... водонепроницаемые машины... подземный гараж заполнен водой на столько же, что и первый этаж здания.... но работающий элетрощит под водой и не убивающий ничего вокруг - это просто супер :)
 

Судя по критике на КиноПоиске получше будет чем Пираньи 3DD.
 

Судя по критике на КиноПоиске получше будет чем Пираньи 3DD.
да, у актеров лица серьезнее
 

Президент Гондураса, сам не смотрел, но отзывы на фильм очень противоречивые! Кого-то приятно удивил сюжет, а кто-то в разочаровании. Но явно не сравнить с Asylum.
TopGun, это инфа на будущую лицензию (честно говоря, просто тупо-дежурно вставил, а исправлять уже неохота было). :)
 

Хорошее 3D
Комп эффекты на троечку
Сам фильм так же на 3
Но 3D использовано на максимум
 

Фильм кстати очень даже ничего! Но 3D особо незаметил
 

фильм не захватывает. Не понравился. Время в пустую....
 

Президент Гондураса, сам не смотрел, но отзывы на фильм очень противоречивые! Кого-то приятно удивил сюжет, а кто-то в разочаровании. Но явно не сравнить с Asylum.
Надо попробовать тогда посмотреть. Говорят, 3Д тут весьма не плохое, да и акула вроде сделана нормально. Спасибо!
 
Президент Гондураса Профиль 10-Окт-2012 19:02

Хоть и не хвалят, все равно интересно посмотреть. За раздачу большое спасибо !
 

А нам понравился фильм, хоть самую малость отошли от шаблонов на ужастики. Последний кадр супер! 3Д хорошее, и глубина и вылеты.
 

Фильм неплох, хоть и нашпигован штампами и жуткими нестыковками вроде электрощита под водой. Смотрится легко, 3D хорош.
 

наитупейшая пародия на фильм))))
 

Ему место на Тв-3 и Рен-тв. Бред с кучей штампов и идиотизмов!
 

Есть плохой фильм,есть очень плохой фильм,а есть ЦУНАМИ
 

фильм ваще ,,,,,опа хуже невидал
 

Ребята вы на торренте контента 3D, а не на кинокритик.ком!
Лучше бы указали какие есть 3D эффекты и сказали спс автору за труды...
 

Д а а а Такого дерьма давно видеть не приходилось Не каждому дано
 

Качество очень неплохое! Эффекты тоже. Но такая чушь!!:)) в смысле-сюжет и непотопляемые машины с коротящим лепестричеством:))
 

Ребята вы на торренте контента 3D, а не на кинокритик.ком!
Лучше бы указали какие есть 3D эффекты и сказали спс автору за труды...
полность согласен с автором. слишком много развелось критиков с нехорошим словом ..........но.Вы сами то хоть один фильм выложили для просмотра.Кто ни чего в своей жизни ни сделал,тот и кричит больше всех.Уважаемые модераторы пора наверное принемать меры к таким писакам.Надо уважать чужой труд.раньше как то не было такого
 

Страница 1 из 2

1, 2  След.