Торренты   
 
 

 

Пираты! Банда неудачников / The Pirates! Band of Misfits [2012 г., BDrip, 1080p, Anamorph SideBySide/ Горизонтальная анаморфная стереопара]

Рейтинг 3D:
15 голосов
7.6
Рейтинг фильма:
16 голосов
7.6
 
Вы должны быть авторизированы,
чтобы ставить оценки


Пираты! Банда неудачников / The Pirates! Band of Misfits
Год выпуска: 2012
Страна: Великобритания, США
Жанр: мультфильм, комедия, приключения, семейный
Продолжительность: 01:28:05
Перевод: Профессиональный (полное дублирование)
Режиссеры: Питер Лорд, Джефф Ньюитт
Роли озвучивали: Хью Грант, Мартин Фриман, Имелда Стонтон, Дэвид Теннант, Джереми Пивен, Сальма Хайек, Ленни Генри, Брайан Блессид, Рассел Тови, Антон Ельчин, Брендан Глисон, Эшли Дженсен, Бен Уайтхед, Эл Рокер, Майк Купер, Дэвид Шнайдер, Том Доггарт, Софи Джерролд, Софи Лотон, Питер Лорд, Кайван Новак, Дэвид Шааль, Митчел Маллен
Роли дублировали: Илья Хвостиков, Василий Зотов, Леонид Барац, Камиль Ларин, Пётр Иващенко, Александр Новиков, Диомид Виноградов, Игорь Письменный
Описание: Экранизация первой книги из серии романов писателя Гидеона Дефо, рассказывающих о банде незадачливых пиратов. В первой части пираты прибывают в Лондон, где знакомятся с молодым Чарльзом Дарвином и говорящим шимпанзе по имени Мистер Бобо, а также столкнутся с врагами, которые хотят их уничтожить.
Формат 3D: Anamorph SideBySide / Горизонтальная анаморфная стереопара
Порядок ракурсов: левый ракурс первый
Видео: AVC, High@L4.1, 1920x1080, 23.976 fps, 7 782 Kbps
Аудио:
№1 - Русский дублированный перевод / AC3 / 48 KHz / 5.1 ch / 448 Kbps
№2 - Английский оригинальный / AC3 / 48 KHz / 5.1 ch / 640 Kbps
№3 - Украинский дублированный перевод / AC3 / 48 KHz / 5.1 ch / 448 Kbps
Субтитры (вшитые .srt):
№1 - Русские форсированные
№2 - Английские полные

MediaInfo

General
Unique ID : 210251593891020000355183523309805629658 (0x9E2CFBEAE58055D696778CB3C4A3F0DA)
Complete name : The Pirates! Band of Misfits 3D [Пираты! Банда неудачников 3D] (2012) DUB hSbS 1080p.mkv
Format : Matroska
Format version : Version 2
File size : 5.85 GiB
Duration : 1h 28mn
Overall bit rate : 9 508 Kbps
Encoded date : UTC 2012-11-02 13:27:01
Writing application : mkvmerge v5.8.0 ('No Sleep / Pillow') built on Sep 2 2012 15:37:04
Writing library : libebml v1.2.3 + libmatroska v1.3.0
Video
ID : 1
Format : AVC
Format/Info : Advanced Video Codec
Format profile : High@L4.1
Format settings, CABAC : Yes
Format settings, ReFrames : 4 frames
Codec ID : V_MPEG4/ISO/AVC
Duration : 1h 28mn
Bit rate : 7 782 Kbps
Width : 1 920 pixels
Height : 1 080 pixels
Display aspect ratio : 16:9
Frame rate : 23.976 fps
Color space : YUV
Chroma subsampling : 4:2:0
Bit depth : 8 bits
Scan type : Progressive
Bits/(Pixel*Frame) : 0.157
Stream size : 4.79 GiB (82%)
Writing library : x264 core 128 r2216 198a7ea
Encoding settings : cabac=1 / ref=4 / deblock=1:-3:-3 / analyse=0x3:0x113 / me=umh / subme=9 / psy=1 / psy_rd=1.00:0.15 / mixed_ref=1 / me_range=32 / chroma_me=1 / trellis=2 / 8x8dct=1 / cqm=0 / deadzone=21,11 / fast_pskip=1 / chroma_qp_offset=-3 / threads=6 / lookahead_threads=1 / sliced_threads=0 / nr=0 / decimate=1 / interlaced=0 / bluray_compat=0 / constrained_intra=0 / bframes=4 / b_pyramid=2 / b_adapt=2 / b_bias=0 / direct=3 / weightb=1 / open_gop=0 / weightp=2 / keyint=250 / keyint_min=23 / scenecut=40 / intra_refresh=0 / rc_lookahead=60 / rc=crf / mbtree=1 / crf=16.0 / qcomp=0.60 / qpmin=0 / qpmax=69 / qpstep=4 / vbv_maxrate=40000 / vbv_bufsize=40000 / crf_max=0.0 / nal_hrd=none / ip_ratio=1.40 / aq=1:0.70
Language : English
Default : Yes
Forced : No
Audio #1
ID : 2
Format : AC-3
Format/Info : Audio Coding 3
Mode extension : CM (complete main)
Codec ID : A_AC3
Duration : 1h 28mn
Bit rate mode : Constant
Bit rate : 448 Kbps
Channel(s) : 6 channels
Channel positions : Front: L C R, Side: L R, LFE
Sampling rate : 48.0 KHz
Bit depth : 16 bits
Compression mode : Lossy
Stream size : 282 MiB (5%)
Title : Русский дублированный
Language : Russian
Default : Yes
Forced : Yes
Audio #2
ID : 3
Format : AC-3
Format/Info : Audio Coding 3
Mode extension : CM (complete main)
Codec ID : A_AC3
Duration : 1h 28mn
Bit rate mode : Constant
Bit rate : 640 Kbps
Channel(s) : 6 channels
Channel positions : Front: L C R, Side: L R, LFE
Sampling rate : 48.0 KHz
Bit depth : 16 bits
Compression mode : Lossy
Stream size : 403 MiB (7%)
Title : Оригинальный
Language : English
Default : No
Forced : No
Audio #3
ID : 4
Format : AC-3
Format/Info : Audio Coding 3
Mode extension : CM (complete main)
Codec ID : A_AC3
Duration : 1h 28mn
Bit rate mode : Constant
Bit rate : 448 Kbps
Channel(s) : 6 channels
Channel positions : Front: L C R, Side: L R, LFE
Sampling rate : 48.0 KHz
Bit depth : 16 bits
Compression mode : Lossy
Stream size : 282 MiB (5%)
Title : Украинский дублированный
Language : Ukrainian
Default : No
Forced : No
Text #1
ID : 5
Format : UTF-8
Codec ID : S_TEXT/UTF8
Codec ID/Info : UTF-8 Plain Text
Title : Русские форсированные
Language : Russian
Default : Yes
Forced : Yes
Text #2
ID : 6
Format : UTF-8
Codec ID : S_TEXT/UTF8
Codec ID/Info : UTF-8 Plain Text
Title : Английские полные
Language : English
Default : No
Forced : No

Анимированные скриншоты для оценки 3Д-эффекта




Остальные раздачи этого фильма (2)
Благодарности релизеру (25)

Торрент:

Статус:

Размер:

Зарегистрирован   [ 2012-11-02 17:58 ]

проверено

5.85 GB

 
 Мнение о фильме (5)





Прекрасный, динамичный, оптимистичный, умный фильм! 3D отличное, музыка Hi-Fi, диалоги, озвучка (дубляж русский) - супер!
Из фильма: "Лондон пахнет как моя бабушка", еще - "Одинокие мужики почти всегда серийные убийцы" - и это только то, что сразу вспомнилось. Фильм можно смотреть и 2 и 3 и более раз и почти всегда находить что-то новое, ранее ускользнувшее от внимания, вероятней всего по причине неудержимого смеха, вызванного очередной, быстро сменяющей друг друга сценой. Вспомните погоню за воришкой обезьянкой. Какая экспрессия, какой напор! И так почти весь фильм. Столько положительной энергии дает просмотр и, конечно, спасибо всем участникам раздачи.
 

Честно говоря, учитывая предыдущий отзыв, решил скачать и посмотрел с семьей. Отторжения мульт ни у кого не вызвал, даже понравился, но после просмотра всей семьей решили, что можно его удалить с жесткого диска.
 

Можно посмотреть разочек всей семьей.
 

Очень красочный, посмотрели семьей на выходных
 

Прикольный мульт. Но сначала была предвзятость к сюжету из-за пластилиновости графики.