Торренты   
 
 

 

Храбрая сердцем в 3Д/ Brave 3D (Марк Эндрюс / Mark Andrews, Бренда Чэпман / Brenda Chapman) [2012, 1080p, BDRip, Anamorph SideBySide]

Рейтинг 3D:
17 голосов
7.5
Рейтинг фильма:
16 голосов
8.4
 
Вы должны быть авторизированы,
чтобы ставить оценки


© Закрыто правообладателем
Год выпуска: 2012
Страна: США
Студия: Pixar Animation Studios, Walt Disney Pictures
Жанр: мультфильм, фэнтези
Продолжительность: 01:34:12
Перевод: профессиональный (дублированный) [звук с НТВ+]
Русские субтитры: нет
Режиссер: Марк Эндрюс / Mark Andrews, Бренда Чэпман / Brenda Chapman, Стив Пурселл / Steve Purcell
В ролях (дублировали): Лиза Арзамасова, Татьяна Веденеева, Михаил Шуфутинский, Александр Аравушкин, Александр Ромашов
Описание:
Испокон веков мифы и легенды окутывают загадочной пеленой живописные отроги Шотландских гор. Искусной лучнице Мериде приходится выбирать свой путь в жизни самостоятельно, и однажды она отказывается следовать древним традициям королевства, бросая вызов могущественным шотландским кланам и их предводителям: нескладному лорду МакГаффину, угрюмому лорду Макинтошу и сварливому лорду Дингволлу. Неосторожные поступки Мериды грозят повергнуть королевство в хаос, и тогда она отправляется за советом к эксцентричной отшельнице, которая вместо помощи накладывает на Мериду опасное заклятье. Юной принцессе предстоит полагаться только на собственную храбрость, чтобы преодолеть могущественное волшебство и победить самого страшного зверя из тех, что водятся в горных долинах ...--Проверено на встроенном плейере ТВ Samsung UE-D7000 --Качество: BDrip
Контейнер: MKV
Формат 3D: Half SideBySide / Горизонтальная анаморфная стереопара
Порядок ракурсов: левый ракурс первый
Видео кодек: x264
Видео: AVC / 1920x1080p / 23.98fps / 10000 kbps
Аудио 1: Русский / AC3 / 48000Hz / 5.1 ch / 384 Kbps
Аудио 2: Английский / AC3 / 48000Hz / 5.1 ch / 640 Kbps
Субтитры: нет

MediaInfo

General
Complete name : Brave.3D(2012)HalfSBS.1080p.x264.RusDub.Eng.AC3.mkv
Format : Matroska
File size : 7.22 GiB
Duration : 1h 34mn
Overall bit rate : 11.0 Mbps
Encoded date : UTC 2012-11-02 13:38:13
Writing application : mkvmerge v3.4.0 ('Rapunzel') сборка от May 15 2010 09:38:20
Writing library : libebml v0.8.0 + libmatroska v0.9.0
Cover : Yes
Video
ID : 1
Format : AVC
Format/Info : Advanced Video Codec
Format profile : High@L4.1
Format settings, CABAC : Yes
Format settings, ReFrames : 4 frames
Format settings, GOP : M=4, N=32
Codec ID : V_MPEG4/ISO/AVC
Duration : 1h 34mn
Bit rate : 10 000 Kbps
Width : 1 920 pixels
Height : 1 080 pixels
Display aspect ratio : 16:9
Frame rate : 23.976 fps
Color space : YUV
Chroma subsampling : 4:2:0
Bit depth : 8 bits
Scan type : Progressive
Bits/(Pixel*Frame) : 0.201
Stream size : 6.40 GiB (89%)
Title : Brave 3D
Writing library : x264 core 119 r2106 07efeb4
Encoding settings : cabac=1 / ref=3 / deblock=1:0:0 / analyse=0x3:0x113 / me=hex / subme=7 / psy=1 / psy_rd=1.00:0.00 / mixed_ref=1 / me_range=16 / chroma_me=1 / trellis=1 / 8x8dct=1 / cqm=0 / deadzone=21,11 / fast_pskip=1 / chroma_qp_offset=-2 / threads=12 / sliced_threads=0 / nr=0 / decimate=1 / interlaced=0 / bluray_compat=0 / constrained_intra=0 / bframes=3 / b_pyramid=2 / b_adapt=1 / b_bias=0 / direct=1 / weightb=1 / open_gop=0 / weightp=2 / keyint=250 / keyint_min=23 / scenecut=40 / intra_refresh=0 / rc_lookahead=40 / rc=abr / mbtree=1 / bitrate=10000 / ratetol=1.0 / qcomp=0.60 / qpmin=0 / qpmax=69 / qpstep=4 / ip_ratio=1.40 / aq=1:1.00
Language : English
Audio #1
ID : 2
Format : AC-3
Format/Info : Audio Coding 3
Mode extension : CM (complete main)
Codec ID : A_AC3
Duration : 1h 34mn
Bit rate mode : Constant
Bit rate : 384 Kbps
Channel(s) : 6 channels
Channel positions : Front: L C R, Side: L R, LFE
Sampling rate : 48.0 KHz
Bit depth : 16 bits
Video delay : 42ms
Stream size : 259 MiB (4%)
Title : Дубляж НТВ+
Language : Russian
Audio #2
ID : 3
Format : AC-3
Format/Info : Audio Coding 3
Mode extension : CM (complete main)
Codec ID : A_AC3
Duration : 1h 34mn
Bit rate mode : Constant
Bit rate : 640 Kbps
Channel(s) : 6 channels
Channel positions : Front: L C R, Side: L R, LFE
Sampling rate : 48.0 KHz
Bit depth : 16 bits
Stream size : 431 MiB (6%)
Title : Original
Language : English

Скриншоты


Благодарности релизеру (22)

Торрент:

Статус:

Размер:

Зарегистрирован   [ 2012-11-02 20:23 ]

© закрыто правообладателем

7.22 GB

 
 Мнение о фильме (5)





3D в мультфильме нормальное, если учесть, что размер экрана 21:9, а не 16:9.
Вылетов практически нет.
Я рекомендовал бы мультик для детей 11-13 лет (уж слишком он мне показался тяжёлым) - все таки это фильм о взрослении молоденькой девушки и ее трудных отношениях с родителями.
Этот мультик совсем не похож на "Рапунцель" и уж тем более на "Как приручить дракона" (хотя мои ожидания были именно такие).
Всем приятного просмотра.
 

как всегда в трейлера показали самое интересное((((
 

смотреть 3D версию смысла нет
только глаза нагружать
А вообще посмотреть можно.
 

Спасибо за мультик!Смотрели всей семьёй!Очень понравился!3Д хоть и без вылетов,но глубина отличная и смотрится легко!Так что я бы не сказал,что для детей до 13 лет и взрослым понравится!Юмор в фильме замечательный как и графика!
 

Мульт хороший и глубина понравилась, рекомендую.