Торренты   
 
 

 

Проклятье 3Д / Sadako 3D (Цутому Ханабуса / Tsutomu Hanabusa) [2012, 1080p, BDRip, Anamorph SideBySide]

Рейтинг 3D:
10 голосов
7.2
Рейтинг фильма:
9 голосов
4.1
 
Вы должны быть авторизированы,
чтобы ставить оценки


Проклятье 3D
Sadako 3D
- Год выпуска: 2012
Страна: Япония
Студия: Kadokawa Pictures, Kansai Telecasting (KTV), Shizuoka Telecasting, Tohokushinsha Film Corporation, Tokai Television Broadcast Company
Жанр: ужасы, триллер
Продолжительность: 01:36:13
Перевод: профессиональный (дублированный)
Русские субтитры: нет
Режиссер: Цутому Ханабуса / Tsutomu Hanabusa
В ролях: Сатоми Ишихара, Коджи Сето, Тсутому Такахаши, Шота Сомея, Хикари Такара, Юсуке Ямамото, Рёусеи Таяма, Аи Хашимото
Описание:
В школе для девочек ходят слухи, что в Интернет есть «проклятый» файл, в котором запечатлено самоубийство. Все, кто увидят это видео, убивают себя. Поначалу учительница не верит слухам, но когда одна из учениц кончает с собой, женщина решает разобраться. Отыскав в Интернете злополучный файл, она едва не погибает вместе со своим бойфрендом. Ей удается узнать, что файл пытается вызвать к жизни безумную Садако, чье проклятье распространялось через видеокассету в предыдущих фильмаx. И ему это удается. Героине предстоит финальная битва с Садако за свою жизнь и жизнь своего любимого.--Проверено на встроенном плейере ТВ Samsung UE-D7000 --Качество: BDrip
Контейнер: MKV
Формат 3D: Half SideBySide / Горизонтальная анаморфная стереопара
Порядок ракурсов: левый ракурс первый
Видео кодек: x264
Видео: AVC / 1920x1080p / 23.98fps / 12000 kbps
Аудио 1: Русский / AC3 / 48000Hz / 5.1 ch / 448 Kbps
Аудио 2: Японский / AC3 / 48000Hz / 5.1 ch / 640 Kbps
Субтитры(PGS): English (вшитые)

MediaInfo

General
Complete name : Sadako.3D(2012)BD3Drip.1080p.x264.Half-SBS.RusDub.Jpn.AC3.Eng-Sub.mkv
Format : Matroska
File size : 8.72 GiB
Duration : 1h 36mn
Overall bit rate : 13.0 Mbps
Encoded date : UTC 2012-11-03 15:56:52
Writing application : mkvmerge v3.4.0 ('Rapunzel') сборка от May 15 2010 09:38:20
Writing library : libebml v0.8.0 + libmatroska v0.9.0
Video
ID : 1
Format : AVC
Format/Info : Advanced Video Codec
Format profile : High@L4.1
Format settings, CABAC : Yes
Format settings, ReFrames : 4 frames
Format settings, GOP : M=4, N=32
Codec ID : V_MPEG4/ISO/AVC
Duration : 1h 36mn
Bit rate : 12.0 Mbps
Width : 1 920 pixels
Height : 1 080 pixels
Display aspect ratio : 16:9
Frame rate : 23.976 fps
Color space : YUV
Chroma subsampling : 4:2:0
Bit depth : 8 bits
Scan type : Progressive
Bits/(Pixel*Frame) : 0.241
Stream size : 7.81 GiB (90%)
Title : Sadako 3D [??]
Writing library : x264 core 120 r2146 bcd41db
Encoding settings : cabac=1 / ref=3 / deblock=1:0:0 / analyse=0x3:0x113 / me=hex / subme=7 / psy=1 / psy_rd=1.00:0.00 / mixed_ref=1 / me_range=16 / chroma_me=1 / trellis=1 / 8x8dct=1 / cqm=0 / deadzone=21,11 / fast_pskip=1 / chroma_qp_offset=-2 / threads=12 / sliced_threads=0 / nr=0 / decimate=1 / interlaced=0 / bluray_compat=0 / constrained_intra=0 / bframes=3 / b_pyramid=2 / b_adapt=1 / b_bias=0 / direct=1 / weightb=1 / open_gop=0 / weightp=2 / keyint=250 / keyint_min=23 / scenecut=40 / intra_refresh=0 / rc_lookahead=40 / rc=abr / mbtree=1 / bitrate=12000 / ratetol=1.0 / qcomp=0.60 / qpmin=0 / qpmax=69 / qpstep=4 / ip_ratio=1.40 / aq=1:1.00
Language : English
Audio #1
ID : 2
Format : AC-3
Format/Info : Audio Coding 3
Mode extension : CM (complete main)
Codec ID : A_AC3
Duration : 1h 36mn
Bit rate mode : Constant
Bit rate : 448 Kbps
Channel(s) : 6 channels
Channel positions : Front: L C R, Side: L R, LFE
Sampling rate : 48.0 KHz
Bit depth : 16 bits
Stream size : 308 MiB (3%)
Title : Дубляж
Language : Russian
Audio #2
ID : 3
Format : AC-3
Format/Info : Audio Coding 3
Mode extension : CM (complete main)
Codec ID : A_AC3
Duration : 1h 36mn
Bit rate mode : Constant
Bit rate : 640 Kbps
Channel(s) : 6 channels
Channel positions : Front: L C R, Side: L R, LFE
Sampling rate : 48.0 KHz
Bit depth : 16 bits
Stream size : 440 MiB (5%)
Title : Original
Language : Japanese
Text
ID : 4
Format : PGS
Codec ID : S_HDMV/PGS
Codec ID/Info : The same subtitle format used on BDs/HD-DVDs
Title : English
Language : English

Скриншоты


Благодарности релизеру (19)

Торрент:

Статус:

Размер:

Зарегистрирован   [ 2012-11-04 00:04 ]

поглощено

8.72 GB

 
Комментарии:





В качестве семпла загрузил в сеть то самое "проклятое видео", скачиваем и смотрим какие в фильме вылеты. (надеюсь все останутся живы)
Вылетов будет много и пара штук даже заставляют вздрогнуть.
3D довольно хорошее, хотя местами, на мой взгляд, можно было больше добавить обьёма.
Всем приятного просмотра.
 

круто))ждал
 

на кинопоиске рейтинг просто жуть((((
 

Очень нравятся японские ужастики, НО ЭТОТ. Японцы сдулись что ли. Игра актеров никакая. Фильм больше похож на пародию. Еще и наши своим дубляжом порадовали.
Дубляж никакой. 3Д очередной "аквариум". Все плоское, Но 5-6 вылетов за фильм есть :)
Спасибо за фильм,
поплювался
 

полный шлакоотстой............нет слов ..........кто дает бабло на такой кал........
 

Топик был перенесен из форума Фильмы в форум Архив

Zagruzin