Торренты   
 
 


Луна / La luna (Энрико Касароса) [2011 г., BDrip, Anamorph OverUnder]

Рейтинг 3D:
6 голосов
6.1
Рейтинг фильма:
6 голосов
7.6
 
Вы должны быть авторизированы,
чтобы ставить оценки


Луна / La luna
Год выпуска: 2011
Страна: США (Pixar Animation Studios, Walt Disney Pictures и др.)
Жанр: мультфильм, короткометражка
Продолжительность: 00:06:56
Перевод: отсутствует / не требуется
Русские субтитры: нет
Режиссер: Энрико Касароса
Сценарий: Энрико Касароса
Продюсер: Кевин Реэр, Джон Лассетер
Композитор: Майкл Джаккино
Монтаж: Стив Блум
Роли озвучивали:
Тони Фучиле, Фил Шеридан
Описание:
Басня о мальчике, который в своем возрасте побывал в самых необычных обстоятельствах. Сегодня это первый раз, когда его папа и дедушка берут его на работу. В старой деревянной лодке они выплывают далеко в море, так что и земли не видно, они останавливаются и ждут. Большой сюрприз ожидает мальчика, когда он обнаруживает самые необычные черты своей семьи, их работы. Должен ли он следовать примеру своего папы, дедушки или оставаться верным своим убеждениям? Сможет ли он найти свой собственный путь в разгар их противоречивых мнений?

Техн. детали съёмки

  • Формат изображения: 2.35 : 1
  • Формат копии: 35 mm (anamorphic) (Kodak Vision Premier 2393)
    D-Cinema (also 3-D version)
  • Изображение: цветное

Релиз группы:

Премьера: 10 февраля 2012

Проверено на встроенном плейере ТВ LG 42LW4500
--
Качество: BDrip by StarStranger
Контейнер: MKV
Формат 3D: Anamorph OverUnder / Вертикальная анаморфная стереопара
Порядок ракурсов: левый ракурс первый
Видео кодек: x264
Аудио кодек: AC3
Видео: AVC / 23,976 fps / 1920х1080p / 4456 Kbps
Аудио:
#1: AC3, 6 ch, 48 kHz, 640 kbps, Eng

MediaInfo

x264 log

Код:
Общее
Уникальный идентификатор                 : 171713041692814677014634102021810188471 (0x812EBA9820F60654935D7BCE13F270B7)
Полное имя                               : D:\3D-RuGroup\Мультфильмы\LaLuna.3D.2011.BD3DRip.Half.OU.x264.AC3.3D-RuGroup.mkv
Формат                                   : Matroska
Версия формата                           : Version 2
Размер файла                             : 258 Мбайт
Продолжительность                        : 6 м. 56 с.
Общий поток                              : 5199 Кбит/сек
Название фильма                          : La luna release 3D-RuGroup rip by StarStranger
Дата кодирования                         : UTC 2012-11-05 12:30:19
Программа кодирования                    : mkvmerge v3.4.0 ('Rapunzel') сборка от May 15 2010 09:38:20
Библиотека кодирования                   : libebml v0.8.0 + libmatroska v0.9.0
Видео
Идентификатор                            : 1
Формат                                   : AVC
Формат/Информация                        : Advanced Video Codec
Профиль формата                          : High@L4.1
Параметр CABAC формата                   : Да
Параметр ReFrames формата                : 4 кадра
Идентификатор кодека                     : V_MPEG4/ISO/AVC
Продолжительность                        : 6 м. 56 с.
Битрейт                                  : 4456 Кбит/сек
Ширина                                   : 1920 пикселей
Высота                                   : 1080 пикселей
Соотношение сторон                       : 16:9
Частота кадров                           : 23,976 кадра/сек
Цветовое пространство                    : YUV
Субдискретизация насыщенности            : 4:2:0
Битовая глубина                          : 8 бит
Тип развёртки                            : Прогрессивная
Бит/(Пиксели*Кадры)                      : 0.090
Размер потока                            : 221 Мбайт (86%)
Заголовок                                : rip by StarStranger
Библиотека кодирования                   : x264 core 128 r2216 198a7ea
Настройки программы                      : cabac=1 / ref=4 / deblock=1:-3:-3 / analyse=0x3:0x133 / me=umh / subme=10 / psy=1 / psy_rd=1.00:0.15 / mixed_ref=1 / me_range=48 / chroma_me=1 / trellis=2 / 8x8dct=1 / cqm=0 / deadzone=21,11 / fast_pskip=0 / chroma_qp_offset=-3 / threads=3 / lookahead_threads=1 / sliced_threads=0 / nr=0 / decimate=1 / interlaced=0 / bluray_compat=0 / constrained_intra=0 / bframes=8 / b_pyramid=2 / b_adapt=2 / b_bias=0 / direct=3 / weightb=1 / open_gop=0 / weightp=2 / keyint=250 / keyint_min=23 / scenecut=40 / intra_refresh=0 / rc_lookahead=60 / rc=crf / mbtree=1 / crf=17.0 / qcomp=0.70 / qpmin=0 / qpmax=69 / qpstep=4 / vbv_maxrate=50000 / vbv_bufsize=50000 / crf_max=0.0 / nal_hrd=none / ip_ratio=1.40 / aq=1:0.70
Default                                  : Нет
Forced                                   : Нет
Аудио
Идентификатор                            : 2
Формат                                   : AC-3
Формат/Информация                        : Audio Coding 3
Расширение режима                        : CM (complete main)
Идентификатор кодека                     : A_AC3
Продолжительность                        : 6 м. 56 с.
Вид битрейта                             : Постоянный
Битрейт                                  : 640 Кбит/сек
Каналы                                   : 6 каналов
Расположение каналов                     : Front: L C R, Side: L R, LFE
Частота                                  : 48,0 КГц
Битовая глубина                          : 16 бит
Метод сжатия                             : С потерями
Размер потока                            : 31,8 Мбайт (12%)
Язык                                     : English
Default                                  : Нет
Forced                                   : Нет

Скриншоты




Благодарности релизеру (10)

Торрент:

Статус:

Размер:

Зарегистрирован   [ 2012-11-05 17:15 ]

проверено

258 MB