Торренты   
 
 

 

Храбрая сердцем / Brave (Марк Эндрюс, Бренда Чэпман, Стив Пурселл) [2012 г., BDRip 1080p, Full OverUnder]

Рейтинг 3D:
53 голосов
7.8
Рейтинг фильма:
55 голосов
8.1
 
Вы должны быть авторизированы,
чтобы ставить оценки


Храбрая сердцем / Brave
Год выпуска: 2012
Страна: США
Жанр: мультфильм, фэнтези, комедия, приключения, семейный
Продолжительность: 01:34:13
Перевод: Профессиональный (полное дублирование) НТВ+
Режиссер: Марк Эндрюс, Бренда Чэпман, Стив Пурселл
В ролях: Келли Макдоналд, Эмма Томпсон, Билли Коннолли, Джули Уолтерс, Робби Колтрейн, Кевин МакКидд, Крэйг Фергюсон, Сэлли Кингхорн, Эйлид Фрайзер, Пейджи Баркер и др.
Описание: Испокон веков мифы и легенды окутывают загадочной пеленой живописные отроги Шотландских гор. Искусной лучнице Мериде приходится выбирать свой путь в жизни самостоятельно, и однажды она отказывается следовать древним традициям королевства, бросая вызов могущественным шотландским кланам и их предводителям: нескладному лорду МакГаффину, угрюмому лорду Макинтошу и сварливому лорду Дингволлу. Неосторожные поступки Мериды грозят повергнуть королевство в хаос, и тогда она отправляется за советом к эксцентричной отшельнице, которая вместо помощи накладывает на Мериду опасное заклятье. Юной принцессе предстоит полагаться только на собственную храбрость, чтобы преодолеть могущественное волшебство и победить самого страшного зверя из тех, что водятся в горных долинах.
Формат 3D: OverUnder
Видео: AVC, High@L5.0, 1920x1600, 23.976 fps, 9183 Кбит/сек
Аудио: Rus, AC-3, 6 каналов, 384 Кбит/сек, 48,0 КГц
Аудио: Eng, AC-3, 6 каналов, 640 Кбит/сек, 48,0 КГц

Скриншоты




MediaInfo

Общее
Уникальный идентификатор : 236149733778094737348983968877667737817 (0xB1A8C8CC181ED0B2B96034FE03FCE0D9)
Полное имя : E:\STEREO\Brave 1080p Rip by Dag13.mkv
Формат : Matroska
Версия формата : Version 2
Размер файла : 6,85 Гбайт
Продолжительность : 1 ч. 34 м.
Общий поток : 10,4 Мбит/сек
Дата кодирования : UTC 2012-11-05 17:41:14
Программа кодирования : mkvmerge v3.4.0 ('Rapunzel') сборка от May 15 2010 09:38:20
Библиотека кодирования : libebml v0.8.0 + libmatroska v0.9.0
Видео
Идентификатор : 1
Формат : AVC
Формат/Информация : Advanced Video Codec
Профиль формата : High@L5.0
Параметр CABAC формата : Да
Параметр ReFrames формата : 4 кадра
Идентификатор кодека : V_MPEG4/ISO/AVC
Продолжительность : 1 ч. 34 м.
Битрейт : 9183 Кбит/сек
Ширина : 1920 пикселей
Высота : 1600 пикселей
Соотношение сторон : 1,200
Режим частоты кадров : Постоянный
Частота кадров : 23,976 кадра/сек
Цветовое пространство : YUV
Субдискретизация насыщенности : 4:2:0
Битовая глубина : 8 бит
Тип развёртки : Прогрессивная
Бит/(Пиксели*Кадры) : 0.125
Размер потока : 6,04 Гбайт (88%)
Библиотека кодирования : x264 core 120 r2145 748fe16
Настройки программы : cabac=1 / ref=4 / deblock=1:-3:-3 / analyse=0x3:0x113 / me=umh / subme=9 / psy=1 / psy_rd=1.00:0.00 / mixed_ref=1 / me_range=16 / chroma_me=1 / trellis=1 / 8x8dct=1 / cqm=0 / deadzone=21,11 / fast_pskip=1 / chroma_qp_offset=-2 / threads=9 / sliced_threads=0 / nr=0 / decimate=1 / interlaced=0 / bluray_compat=0 / constrained_intra=0 / bframes=6 / b_pyramid=2 / b_adapt=2 / b_bias=0 / direct=3 / weightb=1 / open_gop=0 / weightp=2 / keyint=250 / keyint_min=23 / scenecut=40 / intra_refresh=0 / rc_lookahead=60 / rc=crf / mbtree=1 / crf=18.0 / qcomp=0.60 / qpmin=1 / qpmax=69 / qpstep=4 / ip_ratio=1.40 / aq=1:1.00
Язык : English
Default : Нет
Forced : Нет
Аудио #1
Идентификатор : 2
Формат : AC-3
Формат/Информация : Audio Coding 3
Расширение режима : CM (complete main)
Параметр Endianness формата : Big
Идентификатор кодека : A_AC3
Продолжительность : 1 ч. 34 м.
Вид битрейта : Постоянный
Битрейт : 384 Кбит/сек
Каналы : 6 каналов
Расположение каналов : Front: L C R, Side: L R, LFE
Частота : 48,0 КГц
Битовая глубина : 16 бит
Метод сжатия : С потерями
Задержка видео : 42 мс.
Размер потока : 259 Мбайт (4%)
Заголовок : Дублированный (НТВ+)
Язык : Russian
Default : Да
Forced : Нет
Аудио #2
Идентификатор : 3
Формат : AC-3
Формат/Информация : Audio Coding 3
Расширение режима : CM (complete main)
Параметр Endianness формата : Big
Идентификатор кодека : A_AC3
Продолжительность : 1 ч. 34 м.
Вид битрейта : Постоянный
Битрейт : 640 Кбит/сек
Каналы : 6 каналов
Расположение каналов : Front: L C R, Side: L R, LFE
Частота : 48,0 КГц
Битовая глубина : 16 бит
Метод сжатия : С потерями
Размер потока : 431 Мбайт (6%)
Язык : English
Default : Нет
Forced : Нет
На встроенных ТВ-плейерах показывать НЕ будет!!!
Остальные раздачи этого фильма (4)
Благодарности релизеру (19)

Торрент:

Статус:

Размер:

Зарегистрирован   [ 2012-11-05 22:48 ]

проверено

6.85 GB

 
 Мнение о фильме (11)





для детей
 

Мульт конечно нацелен больше на детскую аудиторию)
 

Спасибо за хороший мульт - дети оценили !!!
 

Темноватый мультфильм и очень сильная тонировка в оранжевом спектре..
 

Темноватый мультфильм и очень сильная тонировка в оранжевом спектре..
ЧЁ ????
 
ВАСИЛИЙ СОЛОМОН Профиль 21-Ноя-2012 16:11

Мультик изумительный. Сам посмотрел с огромным удовольствием.
А насчет оранжевой тонировки - это что-то с ТВ. У меня все четко.
 

Темноватый мультфильм и очень сильная тонировка в оранжевом спектре..
А вы её волосы видели? Грива на пол экрана... Вот Вам и тонировка "в оранжевом спектре" ))
 

Спасибо!!! Дочери будут рады.
 

Мультик отличный! Сюжет очень даже ничего. Смотреть и взрослым и детям интересно. Да, есть темные сцены, но вполне все просматриваемые (ну конечно на чем смотреть еще). По 3D - хороший объем, с вылетами - не очень. Но смотреть все равно интересно.
 

Для детей очень даже не плохой мульт.Можно и семьёй посмотреть впрочем.Моя оценка "Хорошо"
 

Лучше, что я видел. Лучший мультфильм! И 3D хорошее :)