Торренты   
 
 

 

Храбрая сердцем / Brave (Марк Эндрюс, Бренда Чэпман, Стив Пурселл) [2012, BDrip, half1080p, Anamorph SideBySide]

Рейтинг 3D:
53 голосов
7.8
Рейтинг фильма:
55 голосов
8.1
 
Вы должны быть авторизированы,
чтобы ставить оценки


Храбрая сердцем / Brave
© закрыто правообладателем
Год выпуска: 2012
Страна: США (Pixar Animation Studios, Walt Disney Pictures и др.)
Жанр: мультфильм, фэнтези, комедия, приключения, семейный
Продолжительность: 01:33:37
Перевод: Профессиональный (полное дублирование)
Субтитры: Английские, русские
Режиссеры: Марк Эндрюс, Бренда Чэпман, Стив Пурселл
Роли озвучивали: Келли Макдоналд, Эмма Томпсон, Билли Коннолли, Джули Уолтерс, Робби Колтрейн, Кевин МакКидд, Крэйг Фергюсон, Сэлли Кингхорн, Эйлид Фрайзер, Пейджи Баркер и др.
Роли дублировали: Лиза Арзамасова, Татьяна Веденеева, Михаил Шуфутинский, Александр Аравушкин, Александр Ромашов и др.
Описание: Испокон веков мифы и легенды окутывают загадочной пеленой живописные отроги Шотландских гор. Искусной лучнице Мериде приходится выбирать свой путь в жизни самостоятельно, и однажды она отказывается следовать древним традициям королевства, бросая вызов могущественным шотландским кланам и их предводителям: нескладному лорду МакГаффину, угрюмому лорду Макинтошу и сварливому лорду Дингволлу. Неосторожные поступки Мериды грозят повергнуть королевство в хаос, и тогда она отправляется за советом к эксцентричной отшельнице, которая вместо помощи накладывает на Мериду опасное заклятье. Юной принцессе предстоит полагаться только на собственную храбрость, чтобы преодолеть могущественное волшебство и победить самого страшного зверя из тех, что водятся в горных долинах.
Качество: BDrip by Alexman©
Формат 3D: Anamorph SideBySide / Горизонтальная анаморфная стереопара
Порядок ракурсов: левый ракурс первый
Видео: AVC, High@L4.1, 1920x1080, 23.976 fps, 6 869 Kbps
Аудио:
№1 - Русский дублированный перевод (лицензия) / AC3 / 48 KHz / 5.1 ch / 448 Kbps
№2 - Английский оригинальный / AC3 / 48 KHz / 5.1 ch / 640 Kbps
№3 - Украинский дублированный перевод / AC3 / 48 KHz / 5.1 ch / 448 Kbps
Субтитры (вшитые .srt):
№1 - Русские полные правильные
№2 - Английские полные
Субтитры (внешние .srt):
Русские полные правильные - здесьПроверено на ТВ Samsung 40C7000 и Samsung 46D7000

MediaInfo

General
Unique ID : 173722542640659327266956671319453621391 (0x82B1BEA3EABA0D5FB2F8ABDB521E5C8F)
Complete name : Brave 3D [Храбрая сердцем 3D] (2012) DUB hSbS 1080p by Alexman©.mkv
Format : Matroska
Format version : Version 2
File size : 5.61 GiB
Duration : 1h 33mn
Overall bit rate : 8 576 Kbps
Movie name : Brave (2012) - HQ-ViDEO
Encoded date : UTC 2012-11-16 05:22:48
Writing application : mkvmerge v5.8.0 ('No Sleep / Pillow') built on Sep 2 2012 15:37:04
Writing library : libebml v1.2.3 + libmatroska v1.3.0
Video
ID : 1
Format : AVC
Format/Info : Advanced Video Codec
Format profile : High@L4.1
Format settings, CABAC : Yes
Format settings, ReFrames : 4 frames
Codec ID : V_MPEG4/ISO/AVC
Duration : 1h 33mn
Bit rate : 6 869 Kbps
Width : 1 920 pixels
Height : 1 080 pixels
Display aspect ratio : 16:9
Frame rate : 23.976 fps
Color space : YUV
Chroma subsampling : 4:2:0
Bit depth : 8 bits
Scan type : Progressive
Bits/(Pixel*Frame) : 0.138
Stream size : 4.49 GiB (80%)
Writing library : x264 core 128 r2216 198a7ea
Encoding settings : cabac=1 / ref=4 / deblock=1:-3:-3 / analyse=0x3:0x113 / me=umh / subme=9 / psy=1 / psy_rd=1.00:0.15 / mixed_ref=1 / me_range=32 / chroma_me=1 / trellis=2 / 8x8dct=1 / cqm=0 / deadzone=21,11 / fast_pskip=1 / chroma_qp_offset=-3 / threads=6 / lookahead_threads=1 / sliced_threads=0 / nr=0 / decimate=1 / interlaced=0 / bluray_compat=0 / constrained_intra=0 / bframes=4 / b_pyramid=2 / b_adapt=2 / b_bias=0 / direct=3 / weightb=1 / open_gop=0 / weightp=2 / keyint=250 / keyint_min=23 / scenecut=40 / intra_refresh=0 / rc_lookahead=60 / rc=crf / mbtree=1 / crf=16.0 / qcomp=0.60 / qpmin=0 / qpmax=69 / qpstep=4 / vbv_maxrate=40000 / vbv_bufsize=40000 / crf_max=0.0 / nal_hrd=none / ip_ratio=1.40 / aq=1:0.70
Language : English
Default : Yes
Forced : No
Audio #1
ID : 2
Format : AC-3
Format/Info : Audio Coding 3
Mode extension : CM (complete main)
Codec ID : A_AC3
Duration : 1h 33mn
Bit rate mode : Constant
Bit rate : 448 Kbps
Channel(s) : 6 channels
Channel positions : Front: L C R, Side: L R, LFE
Sampling rate : 48.0 KHz
Bit depth : 16 bits
Compression mode : Lossy
Stream size : 300 MiB (5%)
Title : Русский дубляж
Language : Russian
Default : Yes
Forced : Yes
Audio #2
ID : 3
Format : AC-3
Format/Info : Audio Coding 3
Mode extension : CM (complete main)
Codec ID : A_AC3
Duration : 1h 33mn
Bit rate mode : Constant
Bit rate : 640 Kbps
Channel(s) : 6 channels
Channel positions : Front: L C R, Side: L R, LFE
Sampling rate : 48.0 KHz
Bit depth : 16 bits
Compression mode : Lossy
Stream size : 429 MiB (7%)
Title : Оригинал
Language : English
Default : No
Forced : No
Audio #3
ID : 4
Format : AC-3
Format/Info : Audio Coding 3
Mode extension : CM (complete main)
Codec ID : A_AC3
Duration : 1h 33mn
Bit rate mode : Constant
Bit rate : 448 Kbps
Channel(s) : 6 channels
Channel positions : Front: L C R, Side: L R, LFE
Sampling rate : 48.0 KHz
Bit depth : 16 bits
Compression mode : Lossy
Stream size : 300 MiB (5%)
Title : Украинский дубляж
Language : Ukrainian
Default : No
Forced : No
Text #1
ID : 5
Format : UTF-8
Codec ID : S_TEXT/UTF8
Codec ID/Info : UTF-8 Plain Text
Title : Русские полные
Language : Russian
Default : No
Forced : No
Text #2
ID : 6
Format : UTF-8
Codec ID : S_TEXT/UTF8
Codec ID/Info : UTF-8 Plain Text
Title : Английские полные
Language : English
Default : No
Forced : No

Скриншоты




Анимированные скриншоты для оценки 3Д-эффекта








16.11.2012 - Релиз обновлён - русское аудио заменено на лицензию, добавлена украинская дорожка. Желающие, скачайте заново торрент-файл.
Остальные раздачи этого фильма (4)
Благодарности релизеру (12)

Торрент:

Статус:

Размер:

Зарегистрирован   [ 2012-11-16 09:40 ]

© закрыто правообладателем

5.61 GB

 
 Мнение о фильме (11)





для детей
 

Мульт конечно нацелен больше на детскую аудиторию)
 

Спасибо за хороший мульт - дети оценили !!!
 

Темноватый мультфильм и очень сильная тонировка в оранжевом спектре..
 

Темноватый мультфильм и очень сильная тонировка в оранжевом спектре..
ЧЁ ????
 
ВАСИЛИЙ СОЛОМОН Профиль 21-Ноя-2012 16:11

Мультик изумительный. Сам посмотрел с огромным удовольствием.
А насчет оранжевой тонировки - это что-то с ТВ. У меня все четко.
 

Темноватый мультфильм и очень сильная тонировка в оранжевом спектре..
А вы её волосы видели? Грива на пол экрана... Вот Вам и тонировка "в оранжевом спектре" ))
 

Спасибо!!! Дочери будут рады.
 

Мультик отличный! Сюжет очень даже ничего. Смотреть и взрослым и детям интересно. Да, есть темные сцены, но вполне все просматриваемые (ну конечно на чем смотреть еще). По 3D - хороший объем, с вылетами - не очень. Но смотреть все равно интересно.
 

Для детей очень даже не плохой мульт.Можно и семьёй посмотреть впрочем.Моя оценка "Хорошо"
 

Лучше, что я видел. Лучший мультфильм! И 3D хорошее :)