Торренты   
 
 

 

Проклятье 3Д / Sadako 3D (Цутому Ханабуса / Tsutomu Hanabusa) [2012, BDrip, half1080p, Anamorph SideBySide]

Рейтинг 3D:
27 голосов
7.6
Рейтинг фильма:
22 голосов
4.5
 
Вы должны быть авторизированы,
чтобы ставить оценки


Проклятье 3D / Sadako 3D
Год выпуска: 2012
Страна: Япония
Студия: Kadokawa Pictures, Kansai Telecasting (KTV), Shizuoka Telecasting, Tohokushinsha Film Corporation, Tokai Television Broadcast Company
Жанр: ужасы, триллер
Продолжительность: 01:36:14
Перевод: Профессиональный (полное дублирование)
Режиссер: Цутому Ханабуса / Tsutomu Hanabusa
В ролях: Сатоми Ишихара, Коджи Сето, Тсутому Такахаши, Шота Сомея, Хикари Такара, Юсуке Ямамото, Рёусеи Таяма, Аи Хашимото
Описание: В школе для девочек ходят слухи, что в Интернет есть «проклятый» файл, в котором запечатлено самоубийство. Все, кто увидят это видео, убивают себя. Поначалу учительница не верит слухам, но когда одна из учениц кончает с собой, женщина решает разобраться. Отыскав в Интернете злополучный файл, она едва не погибает вместе со своим бойфрендом. Ей удается узнать, что файл пытается вызвать к жизни безумную Садако, чье проклятье распространялось через видеокассету в предыдущих фильмаx. И ему это удается. Героине предстоит финальная битва с Садако за свою жизнь и жизнь своего любимого.
Качество: BDrip by Alexman©
Формат 3D: Anamorph SideBySide / Горизонтальная анаморфная стереопара
Порядок ракурсов: левый ракурс первый
Видео: AVC, High@L4.1, 1920x1080, 23.976 fps, 11.4 Mbps
Аудио:
№1 - Русский дублированный перевод / AC3 / 48 KHz / 5.1 ch / 448 Kbps
№2 - Японский оригинальный / AC3 / 48 KHz / 5.1 ch / 640 Kbps

MediaInfo

General
Unique ID : 197054008231239412401434311826801316158 (0x943F38B4F8B9F983A46FE9B65262513E)
Complete name : Sadako 3D [Проклятье 3D] (2012) DUB hSbS 1080p by Alexman©.mkv
Format : Matroska
Format version : Version 2
File size : 8.58 GiB
Duration : 1h 36mn
Overall bit rate : 12.8 Mbps
Encoded date : UTC 2012-11-06 06:45:54
Writing application : mkvmerge v5.8.0 ('No Sleep / Pillow') built on Sep 2 2012 15:37:04
Writing library : libebml v1.2.3 + libmatroska v1.3.0
Video
ID : 1
Format : AVC
Format/Info : Advanced Video Codec
Format profile : High@L4.1
Format settings, CABAC : Yes
Format settings, ReFrames : 4 frames
Codec ID : V_MPEG4/ISO/AVC
Duration : 1h 36mn
Bit rate : 11.4 Mbps
Width : 1 920 pixels
Height : 1 080 pixels
Display aspect ratio : 16:9
Frame rate : 23.976 fps
Color space : YUV
Chroma subsampling : 4:2:0
Bit depth : 8 bits
Scan type : Progressive
Bits/(Pixel*Frame) : 0.230
Stream size : 7.67 GiB (89%)
Writing library : x264 core 128 r2216 198a7ea
Encoding settings : cabac=1 / ref=4 / deblock=1:-3:-3 / analyse=0x3:0x113 / me=umh / subme=9 / psy=1 / psy_rd=1.00:0.15 / mixed_ref=1 / me_range=32 / chroma_me=1 / trellis=2 / 8x8dct=1 / cqm=0 / deadzone=21,11 / fast_pskip=1 / chroma_qp_offset=-3 / threads=6 / lookahead_threads=1 / sliced_threads=0 / nr=0 / decimate=1 / interlaced=0 / bluray_compat=0 / constrained_intra=0 / bframes=4 / b_pyramid=2 / b_adapt=2 / b_bias=0 / direct=3 / weightb=1 / open_gop=0 / weightp=2 / keyint=250 / keyint_min=23 / scenecut=40 / intra_refresh=0 / rc_lookahead=60 / rc=crf / mbtree=1 / crf=18.0 / qcomp=0.60 / qpmin=0 / qpmax=69 / qpstep=4 / vbv_maxrate=40000 / vbv_bufsize=40000 / crf_max=0.0 / nal_hrd=none / ip_ratio=1.40 / aq=1:0.70
Language : English
Default : Yes
Forced : No
Audio #1
ID : 2
Format : AC-3
Format/Info : Audio Coding 3
Mode extension : CM (complete main)
Codec ID : A_AC3
Duration : 1h 36mn
Bit rate mode : Constant
Bit rate : 448 Kbps
Channel(s) : 6 channels
Channel positions : Front: L C R, Side: L R, LFE
Sampling rate : 48.0 KHz
Bit depth : 16 bits
Compression mode : Lossy
Stream size : 308 MiB (4%)
Title : Дублированный перевод
Language : Russian
Default : Yes
Forced : Yes
Audio #2
ID : 3
Format : AC-3
Format/Info : Audio Coding 3
Mode extension : CM (complete main)
Codec ID : A_AC3
Duration : 1h 36mn
Bit rate mode : Constant
Bit rate : 640 Kbps
Channel(s) : 6 channels
Channel positions : Front: L C R, Side: L R, LFE
Sampling rate : 48.0 KHz
Bit depth : 16 bits
Compression mode : Lossy
Stream size : 440 MiB (5%)
Title : Оригинал
Language : Japanese
Default : No
Forced : No

Скриншоты




Анимированные скриншоты для оценки 3Д-эффекта








Проверено на ТВ Samsung 40C7000 и Samsung 46D7000
Остальные раздачи этого фильма (2)
Благодарности релизеру (16)

Торрент:

Статус:

Размер:

Зарегистрирован   [ 2012-11-06 12:01 ]

проверено

8.58 GB

 
 Мнение о фильме (13)





Фильм полное Г... ,игра актёров 0,сюжет 0, 3D на 7,те кто смотрели такие фильмы как Звонок и Проклятие даже не думайте это смотреть.
P.S. Но это только моё мнение.
 

Это всё ладно ) Щас прикол Расскажу )
С гостями смотрим значит этот 3Д фильм на проекторе. Досмотрели до середины, так как им было пора домой. Решил досмотреть этот 3Д один.
Смотрю смотрю, и уснул (В очках, напротив проектора) Тут просыпаюсь от грохота с колонок, открываю глаза, забыл что смотрел 3Д.
И Вижу как на меня летит куча бабочек )). Я так пересрал, что сделал кувырок назад через кровать и ударился головой об стену ))
Теперь я боюсь бабочек ))))))))
 

Мораль: засыпать на 3D фильмах опасно для здоровья :)
 

Не теряйте время на эту ерунду, я бы в обще такие фильмы здесь не выкладывал.
 

за раздачу спасибо! а фильм да, не очень
 

Да... фильм прямо сказать не очень... чуть не заснул, но пока медленно моргал - видел много вылетов, таких как волосы, рука, разбитые стекла и т.п. до того момента который описал Dmitriy5705 - так и не досмотрел... 3D эффектам поставил твердую восьмерку!
Да, за раздачу спасибо!
 

фильм настолько г....о что не знаю как на его съёмку денег выделили....
 

Сколько раз разбилось стекло в этом фильме?! Фильм бред: как 3D эффект, так и сам сценарий, а про актеров можно молчать.
 

А почему две одинаковые раздачи?))
 

tom505, где вторая?
 
ВАСИЛИЙ СОЛОМОН Профиль 02-Апр-2013 09:57

еле досмотрел этот бред.
 

Dmitriy5705, ха-ха-ха
 
Надежда Биллингтон Профиль 12-Июл-2013 16:52

не тратьте время посмотрите другой фильм