Торренты   
 
 


Аэротачки / Planes (Трейлер) [2013 г., Anamorph OverUnder]

Рейтинг 3D:
Пока никто не голосовал
Рейтинг фильма:
Пока никто не голосовал
 
Вы должны быть авторизированы,
чтобы ставить оценки


Аэротачки / Planes (Трейлер)
Год выпуска: 2013
Страна: США
Жанр: мультфильм, комедия, семейный
Продолжительность: 00:01:26
Описание:
Веселый мультфильм для всей семьи. Напоминает мультфильм «Тачки». Маленький самолетик оказывается среди больших крылатых машин, умеющих неподражаемо рассекать воздух и выделяющихся современным дизайном. Самолетик чувствует себя неловко в их обществе. Они же относятся к нему по-разному: кто-то с иронией, а кто-то с заботой.
Формат 3D: Anamorph OverUnder
Видео: AVC / 23,976 fps / 1920х1080p / 9431 Kbps

Скриншоты

MediaInfo

Общее
Уникальный идентификатор : 253752828692905475346429982402626506426 (0xBEE70462523D0C49AE7A32342940CEBA)
Полное имя : G:\Downloads\3д\Planes.3D.2013.Trailer.Eng.3D-RuGroup.mkv
Формат : Matroska
Версия формата : Version 2
Размер файла : 104 Мбайт
Продолжительность : 1 м. 26 с.
Общий поток : 10,1 Мбит/сек
Название фильма : rip by StarStranger
Дата кодирования : UTC 2012-11-05 16:12:28
Программа кодирования : mkvmerge v3.4.0 ('Rapunzel') сборка от May 15 2010 09:38:20
Библиотека кодирования : libebml v0.8.0 + libmatroska v0.9.0
Видео
Идентификатор : 1
Формат : AVC
Формат/Информация : Advanced Video Codec
Профиль формата : High@L4.1
Параметр CABAC формата : Да
Параметр ReFrames формата : 4 кадра
Идентификатор кодека : V_MPEG4/ISO/AVC
Продолжительность : 1 м. 26 с.
Битрейт : 9431 Кбит/сек
Ширина : 1920 пикселей
Высота : 1080 пикселей
Соотношение сторон : 16:9
Частота кадров : 23,976 кадра/сек
Цветовое пространство : YUV
Субдискретизация насыщенности : 4:2:0
Битовая глубина : 8 бит
Тип развёртки : Прогрессивная
Бит/(Пиксели*Кадры) : 0.190
Размер потока : 97,0 Мбайт (94%)
Библиотека кодирования : x264 core 128 r2216 198a7ea
Настройки программы : cabac=1 / ref=4 / deblock=1:-3:-3 / analyse=0x3:0x133 / me=umh / subme=10 / psy=1 / psy_rd=1.00:0.15 / mixed_ref=1 / me_range=48 / chroma_me=1 / trellis=2 / 8x8dct=1 / cqm=0 / deadzone=21,11 / fast_pskip=0 / chroma_qp_offset=-3 / threads=3 / lookahead_threads=1 / sliced_threads=0 / nr=0 / decimate=1 / interlaced=0 / bluray_compat=0 / constrained_intra=0 / bframes=8 / b_pyramid=2 / b_adapt=2 / b_bias=0 / direct=3 / weightb=1 / open_gop=0 / weightp=2 / keyint=250 / keyint_min=23 / scenecut=40 / intra_refresh=0 / rc_lookahead=60 / rc=crf / mbtree=1 / crf=17.0 / qcomp=0.70 / qpmin=0 / qpmax=69 / qpstep=4 / vbv_maxrate=50000 / vbv_bufsize=50000 / crf_max=0.0 / nal_hrd=none / ip_ratio=1.40 / aq=1:0.70
Default : Да
Forced : Нет
Аудио
Идентификатор : 2
Формат : AC-3
Формат/Информация : Audio Coding 3
Расширение режима : CM (complete main)
Идентификатор кодека : A_AC3
Продолжительность : 1 м. 26 с.
Вид битрейта : Постоянный
Битрейт : 448 Кбит/сек
Каналы : 6 каналов
Расположение каналов : Front: L C R, Side: L R, LFE
Частота : 48,0 КГц
Битовая глубина : 16 бит
Метод сжатия : С потерями
Размер потока : 4,61 Мбайт (4%)
Язык : English
Default : Да
Forced : Нет
Благодарности релизеру (3)

Торрент:

Статус:

Размер:

Зарегистрирован   [ 2012-11-06 19:43 ]

проверено

104 MB

 
 Мнение о фильме (3)





Мульт еще не вышел, а уже есть пародия, называется От винта 3D http://www.kinopoisk.ru/film/468174/ Вот тут я думаю получше будет.
 

Не вышел и не выйдет уже, спасибо пародистам...
Что там может быть лучше, если это русское г (с рейтингом 3), а тут пиксар?
 

Я как раз всмысле от пиксара лучше будет