Торренты   
 
 

 

Университет монстров / Monsters University (Трейлер) [2013 г., Anamorph OverUnder]

Рейтинг 3D:
5 голосов
8.4
Рейтинг фильма:
3 голосов
8.7
 
Вы должны быть авторизированы,
чтобы ставить оценки


© Закрыто правообладателем
Год выпуска: 2013
Страна: США
Жанр: мультфильм, фэнтези, комедия, приключения, семейный
Продолжительность: 00:01:10
РЕЖИССЕР Дэн Скэнлон
Роли озвучивали: Джон Гудмен, Билли Кристал, Стив Бушеми, Джоэль Мюррей, Дэйв Фоли, Джулия Суини, Питер Сон, Дженнифер Тилли, Фрэнк Оз, Келси Грэммер
Описание:
Предыстория мультфильма «Корпорация монстров». Майк и Салли — самые опытные пугатели в Монстрополисе, но так было далеко не всегда. Когла они встретились впервые, эти совершенно непохожие друг на друга монстры терпеть друг друга не могли. «Университет монстров» — история о том, как наши старые знакомые прошли путь от взаимной неприязни к крепкой дружбе.
Формат 3D: Anamorph OverUnder
Видео: AVC / 23,976 fps / 1920х1080p / 6189 Kbps

Скриншоты

MediaInfo

Общее
Уникальный идентификатор : 193662262688682901992063421310277844766 (0x91B1FEBDA0BE1445B76C4C5194ECFF1E)
Полное имя : G:\Downloads\3д\MonstersUniversity.3D.2013.Trailer.Eng.3D-RuGroup.mkv
Формат : Matroska
Версия формата : Version 2
Размер файла : 56,1 Мбайт
Продолжительность : 1 м. 9 с.
Общий поток : 6771 Кбит/сек
Название фильма : rip by StarStranger
Дата кодирования : UTC 2012-11-06 16:48:46
Программа кодирования : mkvmerge v3.4.0 ('Rapunzel') сборка от May 15 2010 09:38:20
Библиотека кодирования : libebml v0.8.0 + libmatroska v0.9.0
Видео
Идентификатор : 1
Формат : AVC
Формат/Информация : Advanced Video Codec
Профиль формата : High@L4.1
Параметр CABAC формата : Да
Параметр ReFrames формата : 4 кадра
Идентификатор кодека : V_MPEG4/ISO/AVC
Продолжительность : 1 м. 9 с.
Битрейт : 6189 Кбит/сек
Ширина : 1920 пикселей
Высота : 1080 пикселей
Соотношение сторон : 16:9
Частота кадров : 23,976 кадра/сек
Цветовое пространство : YUV
Субдискретизация насыщенности : 4:2:0
Битовая глубина : 8 бит
Тип развёртки : Прогрессивная
Бит/(Пиксели*Кадры) : 0.124
Размер потока : 51,3 Мбайт (91%)
Библиотека кодирования : x264 core 128 r2216 198a7ea
Настройки программы : cabac=1 / ref=4 / deblock=1:-3:-3 / analyse=0x3:0x133 / me=umh / subme=10 / psy=1 / psy_rd=1.00:0.15 / mixed_ref=1 / me_range=48 / chroma_me=1 / trellis=2 / 8x8dct=1 / cqm=0 / deadzone=21,11 / fast_pskip=0 / chroma_qp_offset=-3 / threads=3 / lookahead_threads=1 / sliced_threads=0 / nr=0 / decimate=1 / interlaced=0 / bluray_compat=0 / constrained_intra=0 / bframes=8 / b_pyramid=2 / b_adapt=2 / b_bias=0 / direct=3 / weightb=1 / open_gop=0 / weightp=2 / keyint=250 / keyint_min=23 / scenecut=40 / intra_refresh=0 / rc_lookahead=60 / rc=crf / mbtree=1 / crf=17.0 / qcomp=0.70 / qpmin=0 / qpmax=69 / qpstep=4 / vbv_maxrate=50000 / vbv_bufsize=50000 / crf_max=0.0 / nal_hrd=none / ip_ratio=1.40 / aq=1:0.70
Default : Да
Forced : Нет
Аудио
Идентификатор : 2
Формат : AC-3
Формат/Информация : Audio Coding 3
Расширение режима : CM (complete main)
Идентификатор кодека : A_AC3
Продолжительность : 1 м. 9 с.
Вид битрейта : Постоянный
Битрейт : 448 Кбит/сек
Каналы : 6 каналов
Расположение каналов : Front: L C R, Side: L R, LFE
Частота : 48,0 КГц
Битовая глубина : 16 бит
Метод сжатия : С потерями
Размер потока : 3,71 Мбайт (7%)
Default : Да
Forced : Нет
Благодарности релизеру (5)

Торрент:

Статус:

Размер:

Зарегистрирован   [ 2012-11-06 21:13 ]

© закрыто правообладателем

56 MB