Торренты   
 
 

 

Апартаменты 1303 в 3D, Трейлер / Apartment 1303 3D, Trailer [2012 г., DCPrip, Anamorph OverUnder]

Рейтинг 3D:
1 голосов
8.0
Рейтинг фильма:
Пока никто не голосовал
 
Вы должны быть авторизированы,
чтобы ставить оценки


Апартаменты 1303 в 3D, Трейлер
Apartment 1303 3D, Trailer
--Год выпуска: 2012
Страна: США, Канада
Жанр: ужасы, ...
Продолжительность: 00:01:56--Описание:В этом, уютном на первый взгляд, отеле всегда рады новым постояльцам, но мало кто знает о легенде проклятия, которое здесь витает. Говорят, что в номере N1303 живут призраки матери и дочери, погибшие насильственной смертью. Не найдя покоя, духи мертвых жаждут отомстить своим убийцам. Теперь каждый, кто переступает порог комнаты ужаса, становится их заложником, и еще никому не удавалось вырваться из плена смерти…--Формат 3d: Anamorph OverUnder (левый ракурс верхний)
Качество: DCPrip
Контейнер: mkv
Видео: AVC / 1920х1080 / 24 fps / 6209 Kbps
Аудио: Русский / AC3 / 6 ch / 448 Kbps / 48 KHz--

MediaInfo:

[code]General
Unique ID : 172484314214886276290117810550848992447 (0x81C34543F7BA875DBD701D39ABEDB4BF)
Complete name : L:\_3D\3D-Trailers\_2012\Trailer_Apartment1303(3D)HalfOU-abq.mkv
Format : Matroska
Format version : Version 2
File size : 93.8 MiB
Duration : 1mn 55s
Overall bit rate : 6 792 Kbps
Encoded date : UTC 2012-11-09 05:33:17
Writing application : mkvmerge v4.0.0 ('The Stars were mine') сборка от Jun 6 2010 16:18:42
Writing library : libebml v1.0.0 + libmatroska v1.0.0
Video
ID : 1
Format : AVC
Format/Info : Advanced Video Codec
Format profile : High@L4.1
Format settings, CABAC : Yes
Format settings, ReFrames : 4 frames
Codec ID : V_MPEG4/ISO/AVC
Duration : 1mn 55s
Bit rate : 6 209 Kbps
Width : 1 920 pixels
Height : 1 080 pixels
Display aspect ratio : 16:9
Frame rate : 24.000 fps
Color space : YUV
Chroma subsampling : 4:2:0
Bit depth : 8 bits
Scan type : Progressive
Bits/(Pixel*Frame) : 0.125
Stream size : 85.7 MiB (91%)
Writing library : x264 core 116 r2074 2641b9e
Encoding settings : cabac=1 / ref=4 / deblock=1:-3:-3 / analyse=0x3:0x113 / me=umh / subme=9 / psy=1 / psy_rd=1.00:0.15 / mixed_ref=1 / me_range=16 / chroma_me=1 / trellis=2 / 8x8dct=1 / cqm=0 / deadzone=21,11 / fast_pskip=1 / chroma_qp_offset=-3 / threads=6 / sliced_threads=0 / nr=0 / decimate=1 / interlaced=0 / bluray_compat=0 / constrained_intra=0 / bframes=6 / b_pyramid=2 / b_adapt=2 / b_bias=0 / direct=3 / weightb=1 / open_gop=0 / weightp=2 / keyint=240 / keyint_min=24 / scenecut=40 / intra_refresh=0 / rc_lookahead=60 / rc=crf / mbtree=1 / crf=18.0 / qcomp=0.60 / qpmin=0 / qpmax=69 / qpstep=4 / vbv_maxrate=40000 / vbv_bufsize=40000 / crf_max=0.0 / nal_hrd=none / frame-packing=4 / ip_ratio=1.40 / aq=1:0.70
Language : English
Default : No
Forced : No
Audio
ID : 2
Format : AC-3
Format/Info : Audio Coding 3
Mode extension : CM (complete main)
Format settings, Endianness : Big
Codec ID : A_AC3
Duration : 1mn 55s
Bit rate mode : Constant
Bit rate : 448 Kbps
Channel(s) : 6 channels
Channel positions : Front: L C R, Side: L R, LFE
Sampling rate : 48.0 KHz
Bit depth : 16 bits
Compression mode : Lossy
Stream size : 6.19 MiB (7%)
Language : Russian
Default : No
Forced : No

Скриншоты

Благодарности релизеру (5)

Торрент:

Статус:

Размер:

Зарегистрирован   [ 2012-11-09 19:38 ]

проверено

94 MB