Торренты   
 
 

 

Искатели приключений 3Д, Трейлер [2012 г., DCPrip, Anamorph OverUnder]

Рейтинг 3D:
7 голосов
1.2
Рейтинг фильма:
5 голосов
2.0
 
Вы должны быть авторизированы,
чтобы ставить оценки


Искатели приключений 3Д, Трейлер --Год выпуска: 2012
Страна: Россия
Жанр: комедия, приключения
Продолжительность: 00:02:07--Описание:Что может быть опаснее, чем поиски сокровищ? Если ты готов к схваткам с местными гангстерами, погоням и другим острым ощущениям — дерзай! Так и сделали трое азартных друзей — пилот Дэн, гонщик Сергей и красавица Софи, отправившись в экзотический Тайланд на поиски затонувшего сундука с драгоценностями монахов. Следуя указателям на карте, оставленной Софи ее дедушкой, троица зафрахтовав яхту, выходит в открытое море….--Формат 3d: Anamorph OverUnder (левый ракурс верхний)
Качество: DCPrip
Контейнер: mkv
Видео: AVC / 1920х1080 / 24 fps / 20.3 Mbps
Аудио: Русский / AC3 / 6 ch / 448 Kbps / 48 KHz--

MediaInfo:

Код:
General
Unique ID                      : 249840718075631526137072481757205967393 (0xBBF592705AF92DF28A6ABA697F393221)
Complete name                  : L:\_3D\3D-Trailers\_2012\Trailer_ИскателиПриключений(3D)HalfOU-abq.mkv
Format                         : Matroska
Format version                 : Version 2
File size                      : 319 MiB
Duration                       : 2mn 6s
Overall bit rate               : 21.1 Mbps
Encoded date                   : UTC 2012-10-17 22:06:55
Writing application            : mkvmerge v4.0.0 ('The Stars were mine') сборка от Jun  6 2010 16:18:42
Writing library                : libebml v1.0.0 + libmatroska v1.0.0
Video
ID                             : 1
Format                         : AVC
Format/Info                    : Advanced Video Codec
Format profile                 : High@L4.1
Format settings, CABAC         : Yes
Format settings, ReFrames      : 4 frames
Codec ID                       : V_MPEG4/ISO/AVC
Duration                       : 2mn 6s
Bit rate                       : 20.3 Mbps
Width                          : 1 920 pixels
Height                         : 1 080 pixels
Display aspect ratio           : 16:9
Frame rate                     : 24.000 fps
Color space                    : YUV
Chroma subsampling             : 4:2:0
Bit depth                      : 8 bits
Scan type                      : Progressive
Bits/(Pixel*Frame)             : 0.407
Stream size                    : 306 MiB (96%)
Language                       : Russian
Default                        : No
Forced                         : No
Audio
ID                             : 2
Format                         : AC-3
Format/Info                    : Audio Coding 3
Mode extension                 : CM (complete main)
Format settings, Endianness    : Big
Codec ID                       : A_AC3
Duration                       : 2mn 6s
Bit rate mode                  : Constant
Bit rate                       : 448 Kbps
Channel(s)                     : 6 channels
Channel positions              : Front: L C R, Side: L R, LFE
Sampling rate                  : 48.0 KHz
Bit depth                      : 16 bits
Compression mode               : Lossy
Delay relative to video        : 16ms
Stream size                    : 6.76 MiB (2%)
Language                       : Russian
Default                        : No
Forced                         : No

Скриншоты

Благодарности релизеру (4)

Торрент:

Статус:

Размер:

Зарегистрирован   [ 2012-11-09 20:03 ]

проверено

319 MB