Торренты   
 
 

 

Снежная Королева в 3Д, Трейлер [2012 г., DCPrip, Anamorph OverUnder]

Рейтинг 3D:
4 голосов
7.2
Рейтинг фильма:
2 голосов
6.5
 
Вы должны быть авторизированы,
чтобы ставить оценки


Снежная Королева в 3Д, Трейлер --Год выпуска: 2012
Страна: Россия
Жанр: мультфильм, семейный, ...
Продолжительность: 00:02:25--Описание:В стремлении сотворить Новый мир — холодный и практичный, где четкость линий призвана заменить эмоции, а северный ветер должен остудить людские души, Снежная Королева избавляется от всех представителей творческих профессий. Маленькой и смелой Герде, отправившейся в опасное путешествие, чтобы спасти своего брата Кая, предстоит столкнуться с этим холодным миром Снежной Королевы. Преодолевая все сложности и преграды на пути к своей цели, Герда не только обретает семью, но и веру в себя, находит поддержку новых друзей.--Формат 3d: Anamorph OverUnder (левый ракурс верхний)
Качество: DCPrip
Контейнер: mkv
Видео: AVC / 1920х1080 / 24 fps / 11.9 Mbps
Аудио: Русский / AC3 / 6 ch / 448 Kbps / 48 KHz--

MediaInfo:

Код:
General
Unique ID                      : 185398949812515040854064983227788550877 (0x8B7A89F6049C3A158C1FF4D7F449E2DD)
Complete name                  : L:\_3D\3D-Trailers\_2012\Trailer_SnowQueen(3D)HalfOU-abq.mkv
Format                         : Matroska
Format version                 : Version 2
File size                      : 217 MiB
Duration                       : 2mn 25s
Overall bit rate               : 12.6 Mbps
Encoded date                   : UTC 2012-11-09 14:55:37
Writing application            : mkvmerge v4.0.0 ('The Stars were mine') сборка от Jun  6 2010 16:18:42
Writing library                : libebml v1.0.0 + libmatroska v1.0.0
Video
ID                             : 1
Format                         : AVC
Format/Info                    : Advanced Video Codec
Format profile                 : High@L4.1
Format settings, CABAC         : Yes
Format settings, ReFrames      : 4 frames
Codec ID                       : V_MPEG4/ISO/AVC
Duration                       : 2mn 25s
Bit rate                       : 11.9 Mbps
Width                          : 1 920 pixels
Height                         : 1 080 pixels
Display aspect ratio           : 16:9
Frame rate                     : 24.000 fps
Color space                    : YUV
Chroma subsampling             : 4:2:0
Bit depth                      : 8 bits
Scan type                      : Progressive
Bits/(Pixel*Frame)             : 0.238
Stream size                    : 205 MiB (94%)
Writing library                : x264 core 116 r2074 2641b9e
Encoding settings              : cabac=1 / ref=4 / deblock=1:-3:-3 / analyse=0x3:0x113 / me=umh / subme=9 / psy=1 / psy_rd=1.00:0.15 / mixed_ref=1 / me_range=16 / chroma_me=1 / trellis=2 / 8x8dct=1 / cqm=0 / deadzone=21,11 / fast_pskip=1 / chroma_qp_offset=-3 / threads=6 / sliced_threads=0 / nr=0 / decimate=1 / interlaced=0 / bluray_compat=0 / constrained_intra=0 / bframes=6 / b_pyramid=2 / b_adapt=2 / b_bias=0 / direct=3 / weightb=1 / open_gop=0 / weightp=2 / keyint=240 / keyint_min=24 / scenecut=40 / intra_refresh=0 / rc_lookahead=60 / rc=crf / mbtree=1 / crf=18.0 / qcomp=0.60 / qpmin=0 / qpmax=69 / qpstep=4 / vbv_maxrate=40000 / vbv_bufsize=40000 / crf_max=0.0 / nal_hrd=none / frame-packing=4 / ip_ratio=1.40 / aq=1:0.70
Language                       : English
Default                        : No
Forced                         : No
Audio
ID                             : 2
Format                         : AC-3
Format/Info                    : Audio Coding 3
Mode extension                 : CM (complete main)
Format settings, Endianness    : Big
Codec ID                       : A_AC3
Duration                       : 2mn 25s
Bit rate mode                  : Constant
Bit rate                       : 448 Kbps
Channel(s)                     : 6 channels
Channel positions              : Front: L C R, Side: L R, LFE
Sampling rate                  : 48.0 KHz
Bit depth                      : 16 bits
Compression mode               : Lossy
Stream size                    : 7.74 MiB (4%)
Language                       : Russian
Default                        : Yes
Forced                         : No

Скриншоты

Благодарности релизеру (8)

Торрент:

Статус:

Размер:

Зарегистрирован   [ 2012-11-09 20:29 ]

проверено

217 MB

 
 Мнение о фильме (6)





Это всего навсего рекламный ролик :-( Не полноценный фильм
 

кэп?
 

"кукарача","от винта", "наша маша и волшебный орех" и вот"снежная королева "- очередная порция фикал.... в кучу Гов...
 
ВАСИЛИЙ СОЛОМОН Профиль 11-Ноя-2012 00:09

К_А_В,
Мало того, еще и сюжет украден со сказки Андерсена. Кругом обман :(
 

Скачал для того чтобы убедиться, что правильно понимаю формат необходимый для просматривания на телевизоре LG (ведь размер небольшой-скачивать недолго). Убедился. Большое спасибо. Скачивал с помощью MediaGet -- очень рекомендую. Юрийнед.
 

когда мульт то будет? Blueray уже, как неделю есть