Торренты   
 
 

 

Спасатели в 3Д / Rescue 3D (Стивен Лоу / Stephen Low) [2011, документальный, BDrip-avc,AC3 rus(MVO)двухголосый закадровый)] Anamorph OverUnder / Вертикальная анаморфная стереопара

Рейтинг 3D:
42 голосов
8.8
Рейтинг фильма:
42 голосов
7.6
 
Вы должны быть авторизированы,
чтобы ставить оценки


Спасатели 3Д / IMAX - Rescue 3D Год выпуска: 2011
Страна: Канада
Жанр: документальный (видовой)
Продолжительность: 00:46:13
Перевод: Профессиональный (двухголосый закадровый)
Русские субтитры: да
Режиссер: Стивен Лоу / Stephen Low
Описание:
Кинофильм "Спасатели" рассказывает о героической повседневной работе спасателей во время стихийных бедствий. Они всегда на передовых рубежах, они всегда первыми приходят на помощь тем, кто попал в беду, они всегда первые для тех, кто страдает от стихийных бедствий. Они избрали себе опасную профессию спасать людей, рискуя собственной жизнью. Это смелые и мужественные люди, для которых дороже всего на свете - человеческая жизнь. Они смело бросаются в бой со стихией, они, преодолевая огонь, воду, бури, ветер и другие проявления стихии, идут спасать тех, кто нуждается в помощи, потому что они - СПАСАТЕЛИ.
--

Техн. детали съёмки

Премьера: 17 июня 2011
Релиз на DVD и Blu-Ray: 6 декабря 2012, «Двадцатый Век Фокс СНГ»

. .
Проверено на встроенном плейере ТВ LG LW 650S
- Доп. информация по релизу: За источник спасибо сервису --Качество: BDrip
Контейнер: MKV
Формат 3D: Anamorph OverUnder / Вертикальная анаморфная стереопара
Порядок ракурсов: левый ракурс первый
Видео кодек: x264
Аудио кодек: AC3-Видео: AVC / 23,976 fps / 1920х1080p / 12,5 Mbps
Аудио 1: Русский / AC3 / 48 KHz / 5.1 ch / 640 Kbps / MVO
Аудио 2: - Английский / AC3 / 48 KHz / 5.1 ch / 640 Kbps
Субтитры вшитые softsub (SRT):
#1 - Русские форсированные (включены по умолчанию)
#2 - Английские full

MediaInfo

Общее
Уникальный идентификатор : 225317789520623943226237899174598804313 (0xA982A0B6754BDF8BB4A493EE16FA0359)
Полное имя : E:\3Д фильмы\IMAX - Rescue (3D)2011.halfOU.1080p.AC3(m@rik05).mkv
Формат : Matroska
Версия формата : Version 2
Размер файла : 4,53 Гбайт
Продолжительность : 46 м.
Общий поток : 14,0 Мбит/сек
Название фильма : IMAX - Rescue (3D)2011 3D-RuGroup
Дата кодирования : UTC 2013-02-11 19:33:05
Программа кодирования : mkvmerge v3.4.0 ('Rapunzel') сборка от May 15 2010 09:38:20
Библиотека кодирования : libebml v0.8.0 + libmatroska v0.9.0
Видео
Идентификатор : 1
Формат : AVC
Формат/Информация : Advanced Video Codec
Профиль формата : High@L4.1
Параметр CABAC формата : Да
Параметр ReFrames формата : 4 кадра
Идентификатор кодека : V_MPEG4/ISO/AVC
Продолжительность : 46 м.
Битрейт : 12,5 Мбит/сек
Ширина : 1920 пикселей
Высота : 1080 пикселей
Соотношение сторон : 16:9
Режим частоты кадров : Постоянный
Частота кадров : 23,976 кадра/сек
Цветовое пространство : YUV
Субдискретизация насыщенности : 4:2:0
Битовая глубина : 8 бит
Тип развёртки : Прогрессивная
Бит/(Пиксели*Кадры) : 0.251
Размер потока : 4,02 Гбайт (89%)
Заголовок : rip by m@rik05
Библиотека кодирования : x264 core 116 r2074 2641b9e
Настройки программы : cabac=1 / ref=4 / deblock=1:-3:-3 / analyse=0x3:0x133 / me=umh / subme=9 / psy=1 / psy_rd=1.00:0.05 / mixed_ref=1 / me_range=16 / chroma_me=1 / trellis=2 / 8x8dct=1 / cqm=0 / deadzone=21,11 / fast_pskip=1 / chroma_qp_offset=-3 / threads=12 / sliced_threads=0 / nr=0 / decimate=1 / interlaced=0 / bluray_compat=0 / constrained_intra=0 / bframes=6 / b_pyramid=2 / b_adapt=2 / b_bias=0 / direct=3 / weightb=1 / open_gop=0 / weightp=2 / keyint=250 / keyint_min=23 / scenecut=40 / intra_refresh=0 / rc_lookahead=60 / rc=crf / mbtree=1 / crf=18.0 / qcomp=0.60 / qpmin=10 / qpmax=69 / qpstep=4 / vbv_maxrate=40000 / vbv_bufsize=40000 / crf_max=0.0 / nal_hrd=none / frame-packing=4 / ip_ratio=1.40 / aq=1:0.70
Язык : English
Default : Нет
Forced : Нет
Аудио #1
Идентификатор : 2
Формат : AC-3
Формат/Информация : Audio Coding 3
Расширение режима : CM (complete main)
Параметр Endianness формата : Big
Идентификатор кодека : A_AC3
Продолжительность : 46 м.
Вид битрейта : Постоянный
Битрейт : 640 Кбит/сек
Каналы : 6 каналов
Расположение каналов : Front: L C R, Side: L R, LFE
Частота : 48,0 КГц
Битовая глубина : 16 бит
Метод сжатия : С потерями
Размер потока : 212 Мбайт (5%)
Заголовок : AC3 5.1 @ 640 kbps MVO (Двухголосый закадровый)
Язык : Russian
Default : Да
Forced : Нет
Аудио #2
Идентификатор : 3
Формат : AC-3
Формат/Информация : Audio Coding 3
Расширение режима : CM (complete main)
Параметр Endianness формата : Big
Идентификатор кодека : A_AC3
Продолжительность : 46 м.
Вид битрейта : Постоянный
Битрейт : 640 Кбит/сек
Каналы : 6 каналов
Расположение каналов : Front: L C R, Side: L R, LFE
Частота : 48,0 КГц
Битовая глубина : 16 бит
Метод сжатия : С потерями
Размер потока : 212 Мбайт (5%)
Заголовок : AC3 5.1 @ 640 kbps (оригинал)
Язык : English
Default : Нет
Forced : Нет
Текст #1
Идентификатор : 4
Формат : UTF-8
Идентификатор кодека : S_TEXT/UTF8
Идентификатор кодека/Информация : UTF-8 Plain Text
Заголовок : форсированные
Язык : Russian
Default : Да
Forced : Нет
Текст #2
Идентификатор : 5
Формат : UTF-8
Идентификатор кодека : S_TEXT/UTF8
Идентификатор кодека/Информация : UTF-8 Plain Text
Заголовок : full
Язык : English
Default : Нет
Forced : Нет
Меню
00:00:00.000 : en:00:00:00.000
00:03:18.448 : en:00:03:18.448
00:06:45.697 : en:00:06:45.697
00:09:19.225 : en:00:09:19.225
00:11:22.515 : en:00:11:22.515
00:13:10.039 : en:00:13:10.039
00:15:22.046 : en:00:15:22.046
00:17:56.867 : en:00:17:56.867
00:19:37.009 : en:00:19:37.009
00:21:15.524 : en:00:21:15.524
00:24:55.911 : en:00:24:55.911
00:28:02.556 : en:00:28:02.556
00:32:48.758 : en:00:32:48.758
00:33:50.320 : en:00:33:50.320
00:36:13.380 : en:00:36:13.380
00:37:37.922 : en:00:37:37.922
00:39:52.432 : en:00:39:52.432
00:40:45.735 : en:00:40:45.735

Скриншоты


Благодарности релизеру (63)

Торрент:

Статус:

Размер:

Зарегистрирован   [ 2013-02-11 23:54 ]

проверено

4.53 GB

 
 Мнение о фильме (11)





3D - изумительное ! Может после Релиза на DVD и Blu-Ray: 15 ноября появится с переводом . Автору спасибо за труды!
 

Видео просто шикарное, особенно вид три д с кабины пилотов вертолета!!!!! Можно смотреть и без перевода)))
 

)))) надеюсь 6-9 декабря перевод будет.
 

А я надеюсь на нормальный размер.
 

И размер,но уж точно не 48 г. нудно для пары просмотров столько качать..а вот перевод ,жду релиза в снг пока не качаю, , надеюсь автор сработает четко...
 

Размер хороший,релизер - тоже,и перевод есть! Марат, СПАСИБО,посмотрим..
 

Интересные съёмки. Отличное 3D. Спасибо.
 

трехмерное изображение и правду удачное
 

Мне понравилось!!!!
 

Американские беспомощные граждане. А вот погибших жалко.
 

Мне понравилось! Интересные съёмки! Спасибо сайту!