Торренты   
 
 

 

Ледниковый период: Гигантское Рождество / Ice Age: A Mammoth Christmas (Карен Дишер) [2011 г., BDrip, Anamorph OverUnder]

Рейтинг 3D:
20 голосов
7.5
Рейтинг фильма:
18 голосов
7.6
 
Вы должны быть авторизированы,
чтобы ставить оценки



Ледниковый период: Гигантское Рождество
Ice Age: A Mammoth Christmas

Год выпуска: 2011
Страна: США (20th Century Fox, Blue Sky Studios и др.)
Жанр: мультфильм, короткометражка, комедия, приключения, семейный
Продолжительность: 00:25:39
Перевод: Профессиональный (дублированный) [русский и украинский]
Русские субтитры: нет
Режиссер: Карен Дишер
Сценарий: Сэм Харпер, Майк Рейсс
Продюсер: Лори Форте
Композитор: Джон Песано
Монтаж: Расселл Итон
Роли озвучивали:
Джон Легуизамо, Шонн Уильям Скотт, ТиДжей Миллер, Кьяра Браво, Куин Латифа, Дэнис Лири, Рэй Романо, Джошуа Раш, Крис Уэдж и др.
Роли дублировали:
Степан Старчиков, Антон Комолов, Александр Груздев, Ольга Шелест, Андрей Бархударов и др.
Описание:
Когда Сид случайно разрушает рождественский камень, Мэнни говорит ему, что Сид попал в черный список Санты, и что ленивцу придется лететь на северный полюс просить извинения у Санты. На северном полюсе Сид хотел все сделать как лучше, но только усугубил ситуацию. Теперь дело за Мэнни и компанией, только они объединившись сохранят Рождество для всего мира!
--
Релиз группы:

Премьера: 24 ноября 2011 (22 декабря 2011)

Проверено на встроенном плейере ТВ LG 42LW4500
--
Качество: BDrip by StarStranger
Контейнер: MKV
Формат 3D: Anamorph OverUnder / Вертикальная анаморфная стереопара
Порядок ракурсов: левый ракурс первый
Видео кодек: x264
Аудио кодек: AC3
Видео: AVC / 23,976 fps / 1920х1080p / 11 Мbps
Аудио:
Русский / AC3 / 48 KHz / 5.1 ch / 640 Kbps
Украинский / AC3 / 48 KHz / 5.1 ch / 384 Kbps
Английский / AC3 / 48 KHz / 5.1 ch / 640 Kbps
Субтитры: Русские, Украинские, Английские (Отдельно)

MediaInfo

Код:
Общее
Уникальный идентификатор                 : 184204845404768765230808345840492329722 (0x8A9490117940646D889D96A35E2DBAFA)
Полное имя                               : G:\IceAge.aMammothChristmas.3D.2012.BD3DRip.Half.OU.x264.AC3.Rus.Ukr.Eng.3D-RuGroup.mkv
Формат                                   : Matroska
Версия формата                           : Version 2
Размер файла                             : 2,32 Гбайт
Продолжительность                        : 25 м.
Общий поток                              : 12,9 Мбит/сек
Название фильма                          : Ice Age: A Mammoth Christmas release 3D-RuGroup rip by StarStranger
Дата кодирования                         : UTC 2012-11-11 09:02:12
Программа кодирования                    : mkvmerge v3.4.0 ('Rapunzel') сборка от May 15 2010 09:38:20
Библиотека кодирования                   : libebml v0.8.0 + libmatroska v0.9.0
Видео
Идентификатор                            : 1
Формат                                   : AVC
Формат/Информация                        : Advanced Video Codec
Профиль формата                          : High@L4.1
Параметр CABAC формата                   : Да
Параметр ReFrames формата                : 4 кадра
Идентификатор кодека                     : V_MPEG4/ISO/AVC
Продолжительность                        : 25 м.
Битрейт                                  : 11,0 Мбит/сек
Ширина                                   : 1920 пикселей
Высота                                   : 1080 пикселей
Соотношение сторон                       : 16:9
Частота кадров                           : 23,976 кадра/сек
Цветовое пространство                    : YUV
Субдискретизация насыщенности            : 4:2:0
Битовая глубина                          : 8 бит
Тип развёртки                            : Прогрессивная
Бит/(Пиксели*Кадры)                      : 0.222
Размер потока                            : 1,97 Гбайт (85%)
Заголовок                                : rip by StarStranger
Библиотека кодирования                   : x264 core 128 r2216 198a7ea
Настройки программы                      : cabac=1 / ref=4 / deblock=1:-3:-3 / analyse=0x3:0x133 / me=umh / subme=10 / psy=1 / psy_rd=1.00:0.15 / mixed_ref=1 / me_range=48 / chroma_me=1 / trellis=2 / 8x8dct=1 / cqm=0 / deadzone=21,11 / fast_pskip=0 / chroma_qp_offset=-3 / threads=3 / lookahead_threads=1 / sliced_threads=0 / nr=0 / decimate=1 / interlaced=0 / bluray_compat=0 / constrained_intra=0 / bframes=8 / b_pyramid=2 / b_adapt=2 / b_bias=0 / direct=3 / weightb=1 / open_gop=0 / weightp=2 / keyint=250 / keyint_min=23 / scenecut=40 / intra_refresh=0 / rc_lookahead=60 / rc=crf / mbtree=1 / crf=17.0 / qcomp=0.70 / qpmin=0 / qpmax=69 / qpstep=4 / vbv_maxrate=50000 / vbv_bufsize=50000 / crf_max=0.0 / nal_hrd=none / ip_ratio=1.40 / aq=1:0.90
Default                                  : Да
Forced                                   : Нет
Аудио #1
Идентификатор                            : 2
Формат                                   : AC-3
Формат/Информация                        : Audio Coding 3
Расширение режима                        : CM (complete main)
Идентификатор кодека                     : A_AC3
Продолжительность                        : 25 м.
Вид битрейта                             : Постоянный
Битрейт                                  : 640 Кбит/сек
Каналы                                   : 6 каналов
Расположение каналов                     : Front: L C R, Side: L R, LFE
Частота                                  : 48,0 КГц
Битовая глубина                          : 16 бит
Метод сжатия                             : С потерями
Размер потока                            : 117 Мбайт (5%)
Язык                                     : Russian
Default                                  : Да
Forced                                   : Нет
Аудио #2
Идентификатор                            : 3
Формат                                   : AC-3
Формат/Информация                        : Audio Coding 3
Расширение режима                        : CM (complete main)
Идентификатор кодека                     : A_AC3
Продолжительность                        : 25 м.
Вид битрейта                             : Постоянный
Битрейт                                  : 384 Кбит/сек
Каналы                                   : 6 каналов
Расположение каналов                     : Front: L C R, Side: L R, LFE
Частота                                  : 48,0 КГц
Битовая глубина                          : 16 бит
Метод сжатия                             : С потерями
Размер потока                            : 70,5 Мбайт (3%)
Язык                                     : Ukrainian
Default                                  : Нет
Forced                                   : Нет
Аудио #3
Идентификатор                            : 4
Формат                                   : AC-3
Формат/Информация                        : Audio Coding 3
Расширение режима                        : CM (complete main)
Идентификатор кодека                     : A_AC3
Продолжительность                        : 25 м.
Вид битрейта                             : Постоянный
Битрейт                                  : 640 Кбит/сек
Каналы                                   : 6 каналов
Расположение каналов                     : Front: L C R, Side: L R, LFE
Частота                                  : 48,0 КГц
Битовая глубина                          : 16 бит
Метод сжатия                             : С потерями
Размер потока                            : 117 Мбайт (5%)
Язык                                     : English
Default                                  : Нет
Forced                                   : Нет
Меню
00:00:00.000                             : :01
00:01:10.195                             : :02
00:06:00.026                             : :03
00:06:52.454                             : :04
00:10:55.738                             : :05
00:13:41.946                             : :06
00:17:47.608                             : :07
00:21:25.576                             : :08

Скриншоты







Остальные раздачи этого фильма (3)
Благодарности релизеру (26)

Торрент:

Статус:

Размер:

Зарегистрирован   [ 2012-11-11 13:35 ]

проверено

2.32 GB