Торренты   
 
 

 

Ледниковый период: Гигантское Рождество / Ice Age: A Mammoth Christmas (Карен Дишер\Karen Disher) [2011 г., Full OverUnder]

Рейтинг 3D:
20 голосов
7.5
Рейтинг фильма:
18 голосов
7.6
 
Вы должны быть авторизированы,
чтобы ставить оценки


Ледниковый период: Гигантское Рождество / Ice Age: A Mammoth Christmas
Год выпуска: 2011
Страна: США
Жанр: мультфильм, короткометражка, комедия, приключения,
Продолжительность: 00:25:39
Перевод: Профессиональный (полное дублирование)
Режиссер: Карен Дишер\Karen Disher
В ролях: Джон Легуизамо, Шонн Уильям Скотт, ТиДжей Миллер, Кьяра Браво, Куин Латифа, Дэнис Лири, Рэй Романо, Джошуа Раш, Крис Уэдж и др.
Описание: Когда Сид случайно разрушает рождественский камень, Мэнни говорит ему, что Сид попал в черный список Санты, и что ленивцу придется лететь на северный полюс просить извинения у Санты. На северном полюсе Сид хотел все сделать как лучше, но только усугубил ситуацию. Теперь дело за Мэнни и компанией, только они объединившись сохранят Рождество для всего мира!
Качество: BDrip
Контейнер: MKV
Формат 3D: OverUnder / Вертикальная стереопара
Порядок ракурсов: левый ракурс первый
Видео кодек: x264
Аудио кодек: DTS
Видео: AVC /High@L5.0 / 23,976 fps / 1920х2160 / 20.4 Mbps
Аудио: Русский / DTS / 48 KHz / 5.1 ch / 755 Kbps
Аудио 2: Английский / DTS / 48 KHz / 5.1 ch / 1510 Kbps
ВНИМАНИЕ ! На встроенных ТВ-плейерах работать не будет!!!
Проверено 3D медиаплеер: Dune HD Smart D1

MediaInfo

General
Unique ID : 170282921955566065943867943503409451850 (0x801B4C3F521C8B2B8CEAFF035BD0134A)
Complete name : D:\закачки\Ice Age A Mammoth Christmas.mkv
Format : Matroska
Format version : Version 2
File size : 4.13 GiB
Duration : 25mn 30s
Overall bit rate mode : Variable
Overall bit rate : 23.2 Mbps
Encoded date : UTC 2012-11-11 15:02:31
Writing application : mkvmerge v3.4.0 ('Rapunzel') сборка от May 15 2010 09:38:20
Writing library : libebml v0.8.0 + libmatroska v0.9.0
Video
ID : 1
Format : AVC
Format/Info : Advanced Video Codec
Format profile : High@L5.0
Format settings, CABAC : Yes
Format settings, ReFrames : 4 frames
Codec ID : V_MPEG4/ISO/AVC
Duration : 25mn 30s
Bit rate : 20.4 Mbps
Width : 1 920 pixels
Height : 2 160 pixels
Display aspect ratio : 0.889
Frame rate : 23.976 fps
Color space : YUV
Chroma subsampling : 4:2:0
Bit depth : 8 bits
Scan type : Progressive
Bits/(Pixel*Frame) : 0.205
Stream size : 3.64 GiB (88%)
Title : Rip by SeRoGa00
Writing library : x264 core 128 r2216kMod 198a7ea
Encoding settings : cabac=1 / ref=4 / deblock=1:-3:-3 / analyse=0x3:0x113 / me=umh / subme=9 / psy=1 / fade_compensate=0.00 / psy_rd=1.00:0.15 / mixed_ref=1 / me_range=16 / chroma_me=1 / trellis=2 / 8x8dct=1 / cqm=0 / deadzone=21,11 / fast_pskip=1 / chroma_qp_offset=-3 / threads=9 / lookahead_threads=1 / sliced_threads=0 / nr=0 / decimate=1 / interlaced=0 / bluray_compat=0 / constrained_intra=0 / bframes=6 / b_pyramid=2 / b_adapt=2 / b_bias=0 / direct=3 / weightb=1 / open_gop=0 / weightp=2 / keyint=250 / keyint_min=23 / scenecut=40 / intra_refresh=0 / rc_lookahead=60 / rc=crf / mbtree=1 / crf=18.0000 / qcomp=0.60 / qpmin=10 / qpmax=69 / qpstep=4 / vbv_maxrate=40000 / vbv_bufsize=40000 / crf_max=0.0 / nal_hrd=none / ip_ratio=1.40 / aq=1:1.00
Language : English
Default : Yes
Forced : No
Audio #1
ID : 2
Format : DTS
Format/Info : Digital Theater Systems
Codec ID : A_DTS
Duration : 25mn 30s
Bit rate mode : Constant
Bit rate : 755 Kbps
Channel(s) : 6 channels
Channel positions : Front: L C R, Side: L R, LFE
Sampling rate : 48.0 KHz
Bit depth : 24 bits
Compression mode : Lossy
Stream size : 138 MiB (3%)
Language : Russian
Default : Yes
Forced : No
Audio #2
ID : 3
Format : DTS
Format/Info : Digital Theater Systems
Format profile : MA / Core
Codec ID : A_DTS
Duration : 25mn 30s
Bit rate mode : Variable
Bit rate : 1 561 Kbps / 1 510 Kbps
Channel(s) : 6 channels
Channel positions : Front: L C R, Side: L R, LFE
Sampling rate : 48.0 KHz
Bit depth : 24 bits
Compression mode : Lossless / Lossy
Language : English
Default : No
Forced : No

Скриншоты


Остальные раздачи этого фильма (3)
Благодарности релизеру (10)

Торрент:

Статус:

Размер:

Зарегистрирован   [ 2012-11-11 20:13 ]

проверено

4.13 GB