Торренты   
 
 

 

Ледниковый период 3: Эра динозавров / Ice Age: Dawn of the Dinosaurs (Карлос Салдана, Майк Трумейер / Carlos Saldanha, Mike Thurmeier) [2009 г., комедия, приключения, семейный, мультфильм, BDRip 1080p] OverUnder / Вертикальная стереопара

Рейтинг 3D:
1 голосов
7.0
Рейтинг фильма:
1 голосов
8.0
 
Вы должны быть авторизированы,
чтобы ставить оценки


Ледниковый период 3: Эра динозавров / Ice Age: Dawn of the Dinosaurs-Год выпуска: 2009
Страна: США
Жанр: комедия, приключения, семейный, мультфильм
Продолжительность: 1:34:01
Перевод: Профессиональный (полное дублирование)
Русские субтитры: нет
Слоган: «The sub-zero heroes are back, on an incredible adventure... for the ages.»-Режиссер: Карлос Салдана / Carlos Saldanha, Майк Трумейер / Mike Thurmeier
В ролях: Джон Легуизамо, Куин Латифа, Денис Лири, Саймон Пегг, Джош Пек, Рэй Романо, Шонн Уильям Скотт, Карен Дишер, Крис Уэдж, Юнис Чо-Описание: К событиям «Ледникового периода 3» жизнь главных героев мультфильма потерпела некоторые изменения. Мамонты Манфред и Элли ожидают появление на свет своего детёныша; саблезубый тигр Диего впал в раздумье о том, не стал ли он слишком «мягкотелым» в компании своих друзей; ленивец Сид, бредя желанием создать собственное племя, решился украсть несколько яиц динозавра. Отправившись спасать Сида, друзья попадают в таинственный растительный мир, скрытый под толщами льда, где они сталкиваются с динозаврами и агрессивной окружающей средой, а так же знакомятся с охотником на динозавров — лаской по имени Бак.
Крысобелка Скрэт (который вновь случайным образом стал виной глобальной проблемы, открыв путь в мир динозавров) по-прежнему гоняется за своим орехом, но на этот раз у него появился конкурент — крысобелка Скрэтти, однако, одновременно с одержимой борьбой за орех, эти двое влюбляются друг в друга.-Качество: BDrip
Формат: MKV
Формат 3D: OverUnder / Вертикальная стереопара
Видео кодек: x264
Аудио кодек: AC3
Видео: MPEG4 Video (H264) 1920x2080 23.98fps 16797.83 kbps
Аудио: russian Dolby AC3 48000Hz 6ch 640 kbps
Аудио: english Dolby AC3 48000Hz 6ch 640 kbps

Скриншоты

MInfo

Format : Matroska
File size : 11.9 GiB
Duration : 1h 34mn
Overall bit rate : 18.1 Mbps
Encoded date : UTC 2010-07-07 19:39:48
Writing application : mkvmerge v4.1.0 ('Boiling Point') сборка от Jul 1 2010 14:37:28
Writing library : libebml v1.0.0 + libmatroska v1.0.0
Video
ID : 1
Format : AVC
Format/Info : Advanced Video Codec
Format profile : High@L5.0
Format settings, CABAC : Yes
Format settings, ReFrames : 4 frames
Muxing mode : Container profile=Unknown@5.0
Codec ID : V_MPEG4/ISO/AVC
Duration : 1h 34mn
Bit rate : 16.4 Mbps
Width : 1 920 pixels
Height : 2 080 pixels
Display aspect ratio : 0.923
Frame rate : 23.976 fps
Resolution : 8 bits
Colorimetry : 4:2:0
Scan type : Progressive
Bits/(Pixel*Frame) : 0.172
Stream size : 10.8 GiB (91%)
Writing library : x264 core 100 r1659 57b2e56
Encoding settings : cabac=1 / ref=4 / deblock=1:-1:-1 / analyse=0x3:0x113 / me=umh / subme=7 / psy=1 / psy_rd=1.00:0.15 / mixed_ref=1 / me_range=16 / chroma_me=1 / trellis=2 / 8x8dct=1 / cqm=0 / deadzone=21,11 / fast_pskip=1 / chroma_qp_offset=-3 / threads=6 / sliced_threads=0 / nr=0 / decimate=1 / interlaced=0 / constrained_intra=0 / bframes=6 / b_pyramid=0 / b_adapt=2 / b_bias=0 / direct=3 / weightb=1 / open_gop=0 / weightp=2 / keyint=250 / keyint_min=25 / scenecut=40 / intra_refresh=0 / rc_lookahead=40 / rc=crf / mbtree=1 / crf=18.0 / qcomp=0.60 / qpmin=10 / qpmax=51 / qpstep=4 / vbv_maxrate=50000 / vbv_bufsize=50000 / crf_max=0.0 / ip_ratio=1.40 / aq=2:1.00 / nal_hrd=none
Audio #1
ID : 2
Format : AC-3
Format/Info : Audio Coding 3
Format_Settings_ModeExtension : CM (complete main)
Codec ID : A_AC3
Duration : 1h 34mn
Bit rate mode : Constant
Bit rate : 640 Kbps
Channel(s) : 6 channels
Channel positions : Front: L C R, Side: L R, LFE
Sampling rate : 48.0 KHz
Video delay : 24ms
Stream size : 430 MiB (4%)
Language : Russian
Audio #2
ID : 3
Format : AC-3
Format/Info : Audio Coding 3
Format_Settings_ModeExtension : CM (complete main)
Codec ID : A_AC3
Duration : 1h 34mn
Bit rate mode : Constant
Bit rate : 640 Kbps
Channel(s) : 6 channels
Channel positions : Front: L C R, Side: L R, LFE
Sampling rate : 48.0 KHz
Video delay : 24ms
Stream size : 430 MiB (4%)
Благодарности релизеру (12)

Торрент:

Статус:

Размер:

Зарегистрирован   [ 2010-07-08 00:21 ]

проверено

11.87 GB