Торренты   
 
 

 

Секретная служба Санта-Клауса / Arthur Christmas [2011, BDrip, half1080p, Anamorph SideBySide]

Рейтинг 3D:
29 голосов
7.8
Рейтинг фильма:
30 голосов
7.4
 
Вы должны быть авторизированы,
чтобы ставить оценки


Секретная служба Санта-Клауса / Arthur Christmas
Год выпуска: 2011
Страна: Великобритания, США (Aardman Animations, Sony Pictures Animation)
Жанр: мультфильм, драма, комедия, семейный
Продолжительность: 01:37:33
Перевод: Профессиональный (полное дублирование)
Режиссеры: Сара Смит, Бэрри Кук
Актёры озвучания:
Джеймс МакЭвой, Хью Лори, Билл Найи, Джим Броудбент, Имелда Стонтон, Эшли Дженсен, Марк Вуттон, Лора Линни, Ева Лонгория, Рамона Маркес и др.
Актёры российского дубляжа:
Антон Колесников, Игорь Балалаев, Александр Леньков, Александр Новиков, Людмила Гнилова и др.
Описание: Фильм приоткрывает завесу тайны над тем, каким образом Санта-Клаусу удается развезти подарки всем детям на Земле всего за одну ночь.
Качество: BDrip by Alexman©
Формат 3D: Anamorph SideBySide / Горизонтальная анаморфная стереопара
Порядок ракурсов: левый ракурс первый
Видео: MPEG4 AVC, 10.5 Mbps, 1920x1080, 23.976 кадр/с
Аудио №1: Русский дублированный перевод / AC3 / 48 KHz / 5.1 ch / 640 Kbps
Аудио №2: Английский оригинальный / AC3 / 48 KHz / 5.1 ch / 640 Kbps
Аудио №3: Украинский дублированный перевод / AC3 / 48 KHz / 5.1 ch / 640 Kbps
Субтитры : Русские форсированные (на надписи) здесь

MediaInfo

General
Unique ID : 220619155738415159947346128066817143063 (0xA5F9B42E7A7A100987F43EADA0B9B117)
Complete name : Arthur Christmas 3D [Секретная служба Санта-Клауса 3D] (2011) DUB hSbS 1080p by Alexman©.mkv
Format : Matroska
Format version : Version 2
File size : 7.17 GiB
Duration : 1h 37mn
Overall bit rate : 10.5 Mbps
Encoded date : UTC 2012-11-13 04:56:04
Writing application : mkvmerge v5.8.0 ('No Sleep / Pillow') built on Sep 2 2012 15:37:04
Writing library : libebml v1.2.3 + libmatroska v1.3.0
Video
ID : 1
Format : AVC
Format/Info : Advanced Video Codec
Format profile : High@L4.1
Format settings, CABAC : Yes
Format settings, ReFrames : 4 frames
Codec ID : V_MPEG4/ISO/AVC
Duration : 1h 37mn
Bit rate : 8 393 Kbps
Width : 1 920 pixels
Height : 1 080 pixels
Display aspect ratio : 16:9
Frame rate : 23.976 fps
Color space : YUV
Chroma subsampling : 4:2:0
Bit depth : 8 bits
Scan type : Progressive
Bits/(Pixel*Frame) : 0.169
Stream size : 5.72 GiB (80%)
Writing library : x264 core 129 r2230 1cffe9f
Encoding settings : cabac=1 / ref=4 / deblock=1:-3:-3 / analyse=0x3:0x113 / me=umh / subme=9 / psy=1 / psy_rd=1.00:0.15 / mixed_ref=1 / me_range=32 / chroma_me=1 / trellis=2 / 8x8dct=1 / cqm=0 / deadzone=21,11 / fast_pskip=1 / chroma_qp_offset=-3 / threads=6 / lookahead_threads=1 / sliced_threads=0 / nr=0 / decimate=1 / interlaced=0 / bluray_compat=0 / constrained_intra=0 / bframes=4 / b_pyramid=2 / b_adapt=2 / b_bias=0 / direct=3 / weightb=1 / open_gop=0 / weightp=2 / keyint=250 / keyint_min=23 / scenecut=40 / intra_refresh=0 / rc_lookahead=60 / rc=crf / mbtree=1 / crf=17.0 / qcomp=0.60 / qpmin=0 / qpmax=69 / qpstep=4 / vbv_maxrate=40000 / vbv_bufsize=40000 / crf_max=0.0 / nal_hrd=none / ip_ratio=1.40 / aq=1:0.70
Language : English
Default : Yes
Forced : No
Audio #1
ID : 2
Format : AC-3
Format/Info : Audio Coding 3
Mode extension : CM (complete main)
Codec ID : A_AC3
Duration : 1h 37mn
Bit rate mode : Constant
Bit rate : 640 Kbps
Channel(s) : 6 channels
Channel positions : Front: L C R, Side: L R, LFE
Sampling rate : 48.0 KHz
Bit depth : 16 bits
Compression mode : Lossy
Stream size : 447 MiB (6%)
Title : Русский дублированный перевод
Language : Russian
Default : Yes
Forced : Yes
Audio #2
ID : 3
Format : AC-3
Format/Info : Audio Coding 3
Mode extension : CM (complete main)
Codec ID : A_AC3
Duration : 1h 37mn
Bit rate mode : Constant
Bit rate : 640 Kbps
Channel(s) : 6 channels
Channel positions : Front: L C R, Side: L R, LFE
Sampling rate : 48.0 KHz
Bit depth : 16 bits
Compression mode : Lossy
Stream size : 447 MiB (6%)
Title : Оригинальный английский
Language : English
Default : No
Forced : No
Audio #3
ID : 4
Format : AC-3
Format/Info : Audio Coding 3
Mode extension : CM (complete main)
Codec ID : A_AC3
Duration : 1h 37mn
Bit rate mode : Constant
Bit rate : 640 Kbps
Channel(s) : 6 channels
Channel positions : Front: L C R, Side: L R, LFE
Sampling rate : 48.0 KHz
Bit depth : 16 bits
Compression mode : Lossy
Stream size : 447 MiB (6%)
Title : Украинский дублированный перевод
Language : Ukrainian
Default : No
Forced : No

Скриншоты




Анимированные скриншоты для оценки 3Д-эффекта








Проверено на ТВ Samsung 40C7000 и Samsung 46D7000
Остальные раздачи этого фильма (3)
Благодарности релизеру (4)

Торрент:

Статус:

Размер:

Зарегистрирован   [ 2012-11-13 09:37 ]

проверено

7.17 GB

 
 Мнение о фильме (4)





очень забавный мультик со смешными и запоминающимися героями
и 3D действительно просто отличное
 

Очень хороший мультфильм! Дочка два раза пересмотрела. 3D тоже отличное!
 

Очень хороший мультик. Дети были довольны!
Эльфы мне чем-то напомнили миньонов из "Гадкия Я" - всем кому нравится этот мультфильм - смотреть обязательно :)
 

Спасибо!