Торренты   
 
 

 

Секретная служба Санта-Клауса / Arthur Christmas (Сара Смит, Бэрри Кук) [2011 г., Full OverUnder]

Рейтинг 3D:
29 голосов
7.8
Рейтинг фильма:
30 голосов
7.4
 
Вы должны быть авторизированы,
чтобы ставить оценки


Секретная служба Санта-Клауса / Arthur Christmas
Год выпуска: 2011
Страна: Великобритания, США
Жанр: Мультфильм, Комедия, Семейный
Продолжительность: 01:37:32
Перевод: Профессиональный (полное дублирование)
Режиссер: Сара Смит, Бэрри Кук
Роли озвучивали (дублировали): Джеймс МакЭвой (Arthur, озвучка), Хью Лори (Steve, озвучка), Билл Найи (Grandsanta, озвучка), Джим Броудбент (Santa, озвучка), Имелда Стонтон (Mrs. Santa, озвучка), Эшли Дженсен (Bryony, озвучка), Марк Вуттон (Peter, озвучка), Лора Линни (North Pole Computer / S-1 Computer, озвучка), Ева Лонгория (Chief De Silva, озвучка), Рамона Маркес (Gwen, озвучка), Майкл Пэлин (Ernie Clicker, озвучка), Санджив Бхаскар (Lead Elf, озвучка)
Описание: Фильм приоткрывает завесу тайны над тем, каким образом Санта-Клаусу удается развезти подарки всем детям на Земле всего за одну ночь.
Сэмпл : http://www.sendspace.com/file/zcpw50
Качество: BDrip
Контейнер: MKV
Формат 3D: OverUnder / Вертикальная стереопара
Порядок ракурсов: левый ракурс первый
Видео кодек: x264
Аудио кодек: AC3
Видео: AVC /High@L5.0/ 23,976 fps / 1920х2076 / 14.7 Mbps
Аудио: Русский / AC3 / 48 KHz / 5.1 ch / 640 Kbps
Аудио 2: Украинский / AC3 / 48 KHz / 5.1 ch / 640 Kbps
Аудио 3: Английский / DTS / 48 KHz / 5.1 ch / 1510 Kbps
ВНИМАНИЕ ! На встроенных ТВ-плейерах работать не будет!!!
Железные плееры на которых воспроизводятся полные стереопары:Popcorn C-200 , Dune HD Smart D1 , Dune HD DUO

MediaInfo

General
Unique ID : 229176087153810265757944786188193940988 (0xAC69B579131AD5169D9F782B9052C5FC)
Complete name : E:\закачки\Arthur Christmas.mkv
Format : Matroska
Format version : Version 2
File size : 12.2 GiB
Duration : 1h 37mn
Overall bit rate mode : Variable
Overall bit rate : 17.9 Mbps
Encoded date : UTC 2012-11-15 06:44:51
Writing application : mkvmerge v3.4.0 ('Rapunzel') сборка от May 15 2010 09:38:20
Writing library : libebml v0.8.0 + libmatroska v0.9.0
Video
ID : 1
Format : AVC
Format/Info : Advanced Video Codec
Format profile : High@L5.0
Format settings, CABAC : Yes
Format settings, ReFrames : 4 frames
Codec ID : V_MPEG4/ISO/AVC
Duration : 1h 37mn
Bit rate : 14.7 Mbps
Width : 1 920 pixels
Height : 2 076 pixels
Display aspect ratio : 0.925
Frame rate mode : Constant
Frame rate : 23.976 fps
Color space : YUV
Chroma subsampling : 4:2:0
Bit depth : 8 bits
Scan type : Progressive
Bits/(Pixel*Frame) : 0.154
Stream size : 10.0 GiB (82%)
Title : Rip by SeRoGa00
Writing library : x264 core 128 r2216kMod 198a7ea
Encoding settings : cabac=1 / ref=4 / deblock=1:-3:-3 / analyse=0x3:0x113 / me=umh / subme=9 / psy=1 / fade_compensate=0.00 / psy_rd=1.00:0.15 / mixed_ref=1 / me_range=16 / chroma_me=1 / trellis=2 / 8x8dct=1 / cqm=0 / deadzone=21,11 / fast_pskip=1 / chroma_qp_offset=-3 / threads=9 / lookahead_threads=1 / sliced_threads=0 / nr=0 / decimate=1 / interlaced=0 / bluray_compat=0 / constrained_intra=0 / bframes=6 / b_pyramid=2 / b_adapt=2 / b_bias=0 / direct=3 / weightb=1 / open_gop=0 / weightp=2 / keyint=250 / keyint_min=23 / scenecut=40 / intra_refresh=0 / rc_lookahead=60 / rc=crf / mbtree=1 / crf=18.0000 / qcomp=0.60 / qpmin=10 / qpmax=69 / qpstep=4 / vbv_maxrate=40000 / vbv_bufsize=40000 / crf_max=0.0 / nal_hrd=none / ip_ratio=1.40 / aq=1:1.00
Language : English
Default : Yes
Forced : No
Audio #1
ID : 2
Format : AC-3
Format/Info : Audio Coding 3
Mode extension : CM (complete main)
Format settings, Endianness : Big
Codec ID : A_AC3
Duration : 1h 37mn
Bit rate mode : Constant
Bit rate : 640 Kbps
Channel(s) : 6 channels
Channel positions : Front: L C R, Side: L R, LFE
Sampling rate : 48.0 KHz
Bit depth : 16 bits
Compression mode : Lossy
Stream size : 447 MiB (4%)
Language : Russian
Default : Yes
Forced : No
Audio #2
ID : 3
Format : AC-3
Format/Info : Audio Coding 3
Mode extension : CM (complete main)
Format settings, Endianness : Big
Codec ID : A_AC3
Duration : 1h 37mn
Bit rate mode : Constant
Bit rate : 640 Kbps
Channel(s) : 6 channels
Channel positions : Front: L C R, Side: L R, LFE
Sampling rate : 48.0 KHz
Bit depth : 16 bits
Compression mode : Lossy
Stream size : 447 MiB (4%)
Language : Ukrainian
Default : No
Forced : No
Audio #3
ID : 4
Format : DTS
Format/Info : Digital Theater Systems
Format profile : MA / Core
Codec ID : A_DTS
Duration : 1h 37mn
Bit rate mode : Variable
Bit rate : 1 561 Kbps / 1 510 Kbps
Channel(s) : 6 channels
Channel positions : Front: L C R, Side: L R, LFE
Sampling rate : 48.0 KHz
Bit depth : 16 bits
Compression mode : Lossless / Lossy
Language : English
Default : No
Forced : No

Скриншоты


Остальные раздачи этого фильма (3)
Благодарности релизеру (5)

Торрент:

Статус:

Размер:

Зарегистрирован   [ 2012-11-16 00:57 ]

проверено

12.19 GB

 
 Мнение о фильме (4)





очень забавный мультик со смешными и запоминающимися героями
и 3D действительно просто отличное
 

Очень хороший мультфильм! Дочка два раза пересмотрела. 3D тоже отличное!
 

Очень хороший мультик. Дети были довольны!
Эльфы мне чем-то напомнили миньонов из "Гадкия Я" - всем кому нравится этот мультфильм - смотреть обязательно :)
 

Спасибо!