Торренты   
 
 

 

Kirac - Derindekiler [2011, BDrip, 1080p, Anamorph OverUnder] [2011 г., Anamorph OverUnder]

Рейтинг 3D:
3 голосов
9.3
Рейтинг фильма:
3 голосов
9.7
 
Вы должны быть авторизированы,
чтобы ставить оценки


Kirac - Derindekiler [2011, BDrip, 1080p, Anamorph OverUnder]
Формат 3D: Half OverUnder / Вертикальная анаморфная стереопара
Качество: BDrip
Год выпуска: 2011
Страна: Турция | TMC
Жанр: Музыка, Rock, Pop
Продолжительность: 00:51:22
Описание: Kıraç'ın "Derindekiler" adını taşıyan albümünde, çoğunluğu kendi şarkılarından oluşan on eser yer aldı. Bestesini yaptığı sekiz eser ile sözlerini yazdığı altı şarkının bulunduğu albümde, müzisyen arkadaşları Namık Nagdaliyev, Edip Emre, Müfide İnselel ve Hakan Doba'nın eserlerine de yer verdi. Albümdeki tüm düzenlemeler Kıraç’a ait.Mayıs 2011'de, yeni albümü "Derindekiler" in müjdecisi olan "Dön Artık" şarkısını sadece digital platformlarda yayınlamıştı.
Треклист:
01. Ağla
02. Nice Yıllara
03. Sevgillim
04. Ayrılmam Senden
05. Ne Olur
06. Ayrılmayalım
07. Dönemem
08. Dön Artık
09. Anne
10. Vazgeçemem

MediaInfo

Формат : Matroska
Версия формата : Version 2
Размер файла : 3,80 Гбайт
Продолжительность : 51 м.
Общий поток : 10,6 Мбит/сек
Название фильма : KIRAC_3D.
Дата кодирования : UTC 2012-11-12 22:18:03
Программа кодирования : mkvmerge v4.0.0 ('The Stars were mine') сборка от Jun 6 2010 16:18:42
Библиотека кодирования : libebml v1.0.0 + libmatroska v1.0.0
Видео
Идентификатор : 1
Формат : AVC
Формат/Информация : Advanced Video Codec
Профиль формата : High@L4.1
Параметр CABAC формата : Да
Параметр ReFrames формата : 2 кадра
Идентификатор кодека : V_MPEG4/ISO/AVC
Продолжительность : 51 м.
Битрейт : 9922 Кбит/сек
Ширина : 1920 пикселей
Высота : 1080 пикселей
Соотношение сторон : 16:9
Режим частоты кадров : Постоянный
Частота кадров : 23,976 кадра/сек
Цветовое пространство : YUV
Субдискретизация насыщенности : 4:2:0
Битовая глубина : 8 бит
Тип развёртки : Прогрессивная
Бит/(Пиксели*Кадры) : 0.200
Размер потока : 3,56 Гбайт (94%)
Библиотека кодирования : x264 core
Default : Да
Forced : Нет
Основные цвета : BT.709
Характеристики трансфера : BT.709
Коэффициенты матрицы : BT.709
Аудио
Идентификатор : 2
Формат : AC-3
Формат/Информация : Audio Coding 3
Расширение режима : CM (complete main)
Параметр Endianness формата : Big
Идентификатор кодека : A_AC3
Продолжительность : 51 м.
Вид битрейта : Постоянный
Битрейт : 448 Кбит/сек
Каналы : 6 каналов
Расположение каналов : Front: L C R, Side: L R, LFE
Частота : 48,0 КГц
Битовая глубина : 16 бит
Метод сжатия : С потерями
Размер потока : 165 Мбайт (4%)
Default : Да
Forced : Нет
Меню
00:00:00.000 : en:(01)00:00:00:000
00:03:50.813 : en:(02)00:03:50:813
00:08:38.100 : en:(03)00:08:38:100
00:13:52.373 : en:(04)00:13:52:373
00:19:19.908 : en:(05)00:19:19:908
00:23:58.687 : en:(06)00:23:58:687
00:29:34.522 : en:(07)00:29:34:522
00:33:22.000 : en:(08)00:33:22:000
00:37:34.418 : en:(09)00:37:34:418
00:42:30.256 : en:(10)00:42:30:256
00:48:53.138 : en:(11)00:48:53:138

Скриншоты






Благодарности релизеру (5)

Торрент:

Статус:

Размер:

Зарегистрирован   [ 2012-11-16 01:06 ]

проверено

3.8 GB

 
 Мнение о фильме (1)





Отличное 3Д и музыка. Вот только описание не на русском почему?