Торренты   
 
 

 

IMAX. Динозавры Патагонии / Dinosaurs. Giants of Patagonia [2007, BDrip, half1080p, Anamorph SideBySyde]

Рейтинг 3D:
35 голосов
8.7
Рейтинг фильма:
30 голосов
8.3
 
Вы должны быть авторизированы,
чтобы ставить оценки


IMAX. Динозавры Патагонии / Dinosaurs. Giants of Patagonia
Год выпуска: 2007
Страна: Канада
Жанр: документальный
Продолжительность: 00:40:34
Перевод: Профессиональный (одноголосый)
Режиссер: Марк Фафард
Описание: Если бы не серия катаклизмов, начатая падением метеорита, наша планета до сих пор могла бы быть населена динозаврами.
Вслед за профессором Рудольфо Гориа, всемирно известным Аргентинским палеонтологом, зритель посетит места его важнейших открытий в Патагонии и вернется назад во времени, чтобы увидеть рождение этих невероятных созданий. Патагония подарила нам самое большое живое существо, когда-либо бродившее по Земле - огромного травоядного Аргентинозавра, а также и его врага Гигантозавра, двуногого хищника, который легко поспорит со знаменитым Т-Рексом.
Качество: BDrip by Alexman©
Формат 3D: Anamorph SideBySide / Горизонтальная анаморфная стереопара
Порядок ракурсов: левый ракурс первый
Видео: MPEG4 AVC, 18.6 Mbps, 1920x1080, 23.976 кадр/с
Аудио №1: Русский одноголосый перевод / AC3 / 48 KHz / 5.1 ch / 640 Kbps
Аудио №2: Английский оригинальный / AC3 / 48 KHz / 5.1 ch / 640 Kbps
Субтитры : Русские полные

MediaInfo

General
Unique ID : 184530657096632004518141331270346054804 (0x8AD34FD32C24C3CEB347E8858B799C94)
Complete name : IMAX - Dinosaurs. Giants of Patagonia 3D [Динозавры Патагонии 3D] (2007) VO 1080p by Alexman©.mkv
Format : Matroska
Format version : Version 2
File size : 5.76 GiB
Duration : 40mn 34s
Overall bit rate : 20.3 Mbps
Encoded date : UTC 2012-11-16 09:54:12
Writing application : mkvmerge v5.8.0 ('No Sleep / Pillow') built on Sep 2 2012 15:37:04
Writing library : libebml v1.2.3 + libmatroska v1.3.0
Video
ID : 1
Format : AVC
Format/Info : Advanced Video Codec
Format profile : High@L4.1
Format settings, CABAC : Yes
Format settings, ReFrames : 4 frames
Codec ID : V_MPEG4/ISO/AVC
Duration : 40mn 34s
Bit rate : 18.6 Mbps
Width : 1 920 pixels
Height : 1 080 pixels
Display aspect ratio : 16:9
Frame rate : 23.976 fps
Color space : YUV
Chroma subsampling : 4:2:0
Bit depth : 8 bits
Scan type : Progressive
Bits/(Pixel*Frame) : 0.375
Stream size : 5.28 GiB (92%)
Writing library : x264 core 129 r2230 1cffe9f
Encoding settings : cabac=1 / ref=4 / deblock=1:-3:-3 / analyse=0x3:0x113 / me=umh / subme=9 / psy=1 / psy_rd=1.00:0.15 / mixed_ref=1 / me_range=32 / chroma_me=1 / trellis=2 / 8x8dct=1 / cqm=0 / deadzone=21,11 / fast_pskip=1 / chroma_qp_offset=-3 / threads=6 / lookahead_threads=1 / sliced_threads=0 / nr=0 / decimate=1 / interlaced=0 / bluray_compat=0 / constrained_intra=0 / bframes=4 / b_pyramid=2 / b_adapt=2 / b_bias=0 / direct=3 / weightb=1 / open_gop=0 / weightp=2 / keyint=250 / keyint_min=23 / scenecut=40 / intra_refresh=0 / rc_lookahead=60 / rc=crf / mbtree=1 / crf=17.0 / qcomp=0.60 / qpmin=0 / qpmax=69 / qpstep=4 / vbv_maxrate=40000 / vbv_bufsize=40000 / crf_max=0.0 / nal_hrd=none / ip_ratio=1.40 / aq=1:0.70
Language : English
Default : Yes
Forced : No
Audio #1
ID : 2
Format : AC-3
Format/Info : Audio Coding 3
Mode extension : CM (complete main)
Codec ID : A_AC3
Duration : 40mn 34s
Bit rate mode : Constant
Bit rate : 640 Kbps
Channel(s) : 6 channels
Channel positions : Front: L C R, Side: L R, LFE
Sampling rate : 48.0 KHz
Bit depth : 16 bits
Compression mode : Lossy
Stream size : 186 MiB (3%)
Title : Русский (Одноголосый закадровый)
Language : Russian
Default : Yes
Forced : Yes
Audio #2
ID : 3
Format : AC-3
Format/Info : Audio Coding 3
Mode extension : CM (complete main)
Codec ID : A_AC3
Duration : 40mn 34s
Bit rate mode : Constant
Bit rate : 640 Kbps
Channel(s) : 6 channels
Channel positions : Front: L C R, Side: L R, LFE
Sampling rate : 48.0 KHz
Bit depth : 16 bits
Compression mode : Lossy
Stream size : 186 MiB (3%)
Title : Английский
Language : English
Default : No
Forced : No
Text
ID : 4
Format : UTF-8
Codec ID : S_TEXT/UTF8
Codec ID/Info : UTF-8 Plain Text
Title : Русские полные
Language : Russian
Default : Yes
Forced : No

Скриншоты


Анимированные скриншоты для оценки 3Д-эффекта






Анаглифные скриншоты для оценки 3Д-эффекта






Проверено на ТВ Samsung 40C7000 и Samsung 46D7000
Остальные раздачи этого фильма (4)
Благодарности релизеру (37)

Торрент:

Статус:

Размер:

Зарегистрирован   [ 2012-11-16 14:44 ]

проверено

5.76 GB

 
 Мнение о фильме (7)





Спасибо !!! прикольный фильм !!!
 

вылеты какие нибудь есть??как качество 3D? Отпишитесь кто смотрел.Стоит скачивать или нет
 

Не так вникал в сюжет, как наслаждался красивыми пейзажами и хорошим 3Д !! =)
 

3d - very goooooodddd
 

Замечательный и познавательный фильм!3Д тоже хорошее, что очень порадовало.
 

фильм нормуль. 3д норма.
 

Станьте на раздачу,плииззз!