Торренты   
 
 

 

Союз зверей / Konferenz der Tiere (Райнхард Клоосс) [2010 г., BDRip, Crop Anamorph OverUnder]

Рейтинг 3D:
26 голосов
8.6
Рейтинг фильма:
27 голосов
8.5
 
Вы должны быть авторизированы,
чтобы ставить оценки


Союз зверей / Konferenz der Tiere
Год выпуска: 2010
Страна: Германия
Жанр: мультфильм, комедия, приключения, семейный
Продолжительность: 01:33:13
Перевод: Профессиональный (полное дублирование)
Режиссер: Райнхард Клоосс
В ролях: Вадим Галыгин, Илья Любимов, Тимур Родригез, Иван Жарков, Любовь Германова, Вероника Саркисова, Пётр Иващенко, Дмитрий Курта
Описание: Команда веселых зверей нашла зеленый оазис посреди засушливой африканской пустыни, чтобы там поселиться. Но их жизнь оказалась под угрозой - река Окаванго стала быстро пересыхать. Друзья выясняют, что в этом виноваты люди, которые построили дамбу. Звери, - такие разные, - от льва до трусливого суслика, - объединяются в союз, чтобы бросить вызов людям и спасти долину! Смешная ватага разношерстных, винторогих и парнокопытных устроит развеселую жизнь людям и наведет свой «порядок» на дамбе!
Внимание: Справа и слева у видеоряда обрезано по 236р, что дает возможность просмотра на полный экран (без черных полос) на телевизорах с соотношением сторон 16:9 без изменения пропорций.
Более подробная информация
Релиз группы:
Формат 3D: OverUnder BDRip, Crop Anamorph
Видео: AVC, High@L4.0, 1920x1080, 23.976 fps, 7381 Кбит/сек
Аудио: Rus, AC-3, 6 каналов, 640 Кбит/сек, 48,0 КГц
Аудио: Eng, AC-3, 6 каналов, 640 Кбит/сек, 48,0 КГц

Скриншоты




MediaInfo

Общее
Уникальный идентификатор : 173685012345638870015329387331842035221 (0x82AA8440FF31BC0CA27743DAC4914E15)
Полное имя : E:\STEREO CROP\Animals United_Konferenz der Tiere_(CROP)_Rip by Dag13.mkv
Формат : Matroska
Версия формата : Version 2
Размер файла : 5,75 Гбайт
Продолжительность : 1 ч. 33 м.
Общий поток : 8837 Кбит/сек
Дата кодирования : UTC 2012-11-16 16:06:34
Программа кодирования : mkvmerge v3.4.0 ('Rapunzel') сборка от May 15 2010 09:38:20
Библиотека кодирования : libebml v0.8.0 + libmatroska v0.9.0
Видео
Идентификатор : 1
Формат : AVC
Формат/Информация : Advanced Video Codec
Профиль формата : High@L4.0
Параметр CABAC формата : Да
Параметр ReFrames формата : 4 кадра
Идентификатор кодека : V_MPEG4/ISO/AVC
Продолжительность : 1 ч. 33 м.
Битрейт : 7381 Кбит/сек
Ширина : 1920 пикселей
Высота : 1080 пикселей
Соотношение сторон : 16:9
Режим частоты кадров : Постоянный
Частота кадров : 23,976 кадра/сек
Цветовое пространство : YUV
Субдискретизация насыщенности : 4:2:0
Битовая глубина : 8 бит
Тип развёртки : Прогрессивная
Бит/(Пиксели*Кадры) : 0.148
Размер потока : 4,80 Гбайт (84%)
Заголовок : Rip by Dag13
Библиотека кодирования : x264 core 120 r2145 748fe16
Настройки программы : cabac=1 / ref=4 / deblock=1:-3:-3 / analyse=0x3:0x113 / me=umh / subme=9 / psy=1 / psy_rd=1.00:0.00 / mixed_ref=1 / me_range=16 / chroma_me=1 / trellis=1 / 8x8dct=1 / cqm=0 / deadzone=21,11 / fast_pskip=1 / chroma_qp_offset=-2 / threads=9 / sliced_threads=0 / nr=0 / decimate=1 / interlaced=0 / bluray_compat=0 / constrained_intra=0 / bframes=6 / b_pyramid=2 / b_adapt=2 / b_bias=0 / direct=3 / weightb=1 / open_gop=0 / weightp=2 / keyint=250 / keyint_min=23 / scenecut=40 / intra_refresh=0 / rc_lookahead=60 / rc=crf / mbtree=1 / crf=17.0 / qcomp=0.60 / qpmin=1 / qpmax=69 / qpstep=4 / ip_ratio=1.40 / aq=1:1.00
Язык : English
Default : Нет
Forced : Нет
Аудио #1
Идентификатор : 2
Формат : AC-3
Формат/Информация : Audio Coding 3
Расширение режима : CM (complete main)
Параметр Endianness формата : Big
Идентификатор кодека : A_AC3
Продолжительность : 1 ч. 33 м.
Вид битрейта : Постоянный
Битрейт : 640 Кбит/сек
Каналы : 6 каналов
Расположение каналов : Front: L C R, Side: L R, LFE
Частота : 48,0 КГц
Битовая глубина : 16 бит
Метод сжатия : С потерями
Размер потока : 426 Мбайт (7%)
Язык : Russian
Default : Да
Forced : Нет
Аудио #2
Идентификатор : 3
Формат : AC-3
Формат/Информация : Audio Coding 3
Расширение режима : CM (complete main)
Параметр Endianness формата : Big
Идентификатор кодека : A_AC3
Продолжительность : 1 ч. 33 м.
Вид битрейта : Постоянный
Битрейт : 640 Кбит/сек
Каналы : 6 каналов
Расположение каналов : Front: L C R, Side: L R, LFE
Частота : 48,0 КГц
Битовая глубина : 16 бит
Метод сжатия : С потерями
Размер потока : 426 Мбайт (7%)
Язык : English
Default : Нет
Forced : Нет
Остальные раздачи этого фильма (5)
Благодарности релизеру (60)

Торрент:

Статус:

Размер:

Зарегистрирован   [ 2012-11-16 20:41 ]

проверено

5.75 GB

 
 Мнение о фильме (4)





Мульт хороший! Детям очень понравился. Сначала показал им в обычном режиме, а потом в 3D-восторг был неопесуемым!!!
 

Мне мульт показался полной чушью, качество отличное а физика движения и прорисовка в некоторых сценах средняя, по моему мнению.
 

У меня задний план раздваивается, регулровка не помогла. Мульт пришлось удалить. Жаль :(
 

Мультик сам по себе, на мой взгляд, заслуживает средней оценки, как по сюжету, так и по 3Д.