Торренты   
 
 


Ронал-варвар / Ronal Barbaren (Крестен Вестбьерг Андерсен, Торбьорн Кристофферсен, Филип Эйнштейн Липски) [2011 г., BDRip, Crop Anamorph OverUnder]

Рейтинг 3D:
22 голосов
6.3
Рейтинг фильма:
25 голосов
8.0
 
Вы должны быть авторизированы,
чтобы ставить оценки


Ронал-варвар / Ronal Barbaren
Год выпуска: 2011
Страна: Дания
Жанр: мультфильм, фэнтези, приключения
Продолжительность: 01:29:18
Перевод: Профессиональный (полное дублирование)
Режиссер: Крестен Вестбьерг Андерсен, Торбьорн Кристофферсен, Филип Эйнштейн Липски
В ролях: Андерс Юль, Хади Ка-Куш, Лерке Винтер Андерсен, Бриджитт Нильсен, Брайан Лукке, Ларс Миккельсен, Питер Од, Ларс Бом, Оле Теструп, Пребен Кристенсен, Оле Эрнст
Описание: Ронал — самый нетипичный варвар на Земле. Его не интересуют ни битвы, ни завоевания, ни пиры. Больше всего на свете ему хочется, чтобы все просто оставили его в покое. Но судьба распоряжается иначе. Однажды злобный принц Вольказар, вождь враждебного племени, захватывает всех варваров в плен, чтобы принести их в жертву древним богам и обрести власть над миром. На свободе остается лишь Ронал. И теперь ему вместе с безалаберным бардом Алибером, мускулистой девой-воительницей Зандрой и эльфом-метросексуалом Эльриком предстоит пройти множество испытаний, чтобы освободить свой народ, обрести веру в себя и… найти любовь.
Внимание: Справа и слева у видеоряда обрезано по 248р, что дает возможность просмотра на полный экран (без черных полос) на телевизорах с соотношением сторон 16:9 без изменения пропорций.
Более подробная информация
Релиз группы:
Формат 3D: OverUnder BDRip, Crop Anamorph
Видео: AVC, High@L4.0, 1920x1080, 23.976 fps, 7349 Кбит/сек
Аудио: Rus, AC-3, 6 каналов, 640 Кбит/сек, 48,0 КГц

Скриншоты




MediaInfo

Общее
Уникальный идентификатор : 178702216393967077394141332889997127580 (0x8670CB8308616433AC2A81D4A463AF9C)
Полное имя : E:\STEREO CROP\Ronal Barbaren_(CROP)_Rip by Dag13.mkv
Формат : Matroska
Версия формата : Version 2
Размер файла : 5,08 Гбайт
Продолжительность : 1 ч. 29 м.
Общий поток : 8152 Кбит/сек
Дата кодирования : UTC 2012-11-17 03:27:37
Программа кодирования : mkvmerge v3.4.0 ('Rapunzel') сборка от May 15 2010 09:38:20
Библиотека кодирования : libebml v0.8.0 + libmatroska v0.9.0
Видео
Идентификатор : 1
Формат : AVC
Формат/Информация : Advanced Video Codec
Профиль формата : High@L4.0
Параметр CABAC формата : Да
Параметр ReFrames формата : 4 кадра
Идентификатор кодека : V_MPEG4/ISO/AVC
Продолжительность : 1 ч. 29 м.
Битрейт : 7349 Кбит/сек
Ширина : 1920 пикселей
Высота : 1080 пикселей
Соотношение сторон : 16:9
Режим частоты кадров : Постоянный
Частота кадров : 23,976 кадра/сек
Цветовое пространство : YUV
Субдискретизация насыщенности : 4:2:0
Битовая глубина : 8 бит
Тип развёртки : Прогрессивная
Бит/(Пиксели*Кадры) : 0.148
Размер потока : 4,58 Гбайт (90%)
Заголовок : Rip by Dag13
Библиотека кодирования : x264 core 120 r2145 748fe16
Настройки программы : cabac=1 / ref=4 / deblock=1:-3:-3 / analyse=0x3:0x113 / me=umh / subme=9 / psy=1 / psy_rd=1.00:0.00 / mixed_ref=1 / me_range=16 / chroma_me=1 / trellis=1 / 8x8dct=1 / cqm=0 / deadzone=21,11 / fast_pskip=1 / chroma_qp_offset=-2 / threads=9 / sliced_threads=0 / nr=0 / decimate=1 / interlaced=0 / bluray_compat=0 / constrained_intra=0 / bframes=6 / b_pyramid=2 / b_adapt=2 / b_bias=0 / direct=3 / weightb=1 / open_gop=0 / weightp=2 / keyint=250 / keyint_min=23 / scenecut=40 / intra_refresh=0 / rc_lookahead=60 / rc=crf / mbtree=1 / crf=17.0 / qcomp=0.60 / qpmin=1 / qpmax=69 / qpstep=4 / ip_ratio=1.40 / aq=1:1.00
Язык : English
Default : Нет
Forced : Нет
Аудио
Идентификатор : 2
Формат : AC-3
Формат/Информация : Audio Coding 3
Расширение режима : CM (complete main)
Параметр Endianness формата : Big
Идентификатор кодека : A_AC3
Продолжительность : 1 ч. 29 м.
Вид битрейта : Постоянный
Битрейт : 640 Кбит/сек
Каналы : 6 каналов
Расположение каналов : Front: L C R, Side: L R, LFE
Частота : 48,0 КГц
Битовая глубина : 16 бит
Метод сжатия : С потерями
Размер потока : 409 Мбайт (8%)
Язык : Russian
Default : Да
Forced : Нет
Остальные раздачи этого фильма (3)
Благодарности релизеру (33)

Торрент:

Статус:

Размер:

Зарегистрирован   [ 2012-11-17 08:38 ]

проверено

5.08 GB

 
 Мнение о фильме (21)

1, 2  След.






спасибо
 

Спасибо за мультик
 

Спасибо! Сейчас скачаю и гляну, у меня, кстати, тоже LG42lw575s.
 

афтору респект
 

это FABрип и битрейт явно завышен, лишний трафик только.
 

Спасибо!
 

супер. я как раз не смотрел еще
 

Ура )) я на этот мульт 3 Раза ходил в Кинотеатр ))) ща буду четвёртый раз ухахатываться ))))))
Спасибо ))
 

Не могу понять,написано "Дубляж" а на деле слышна оригинальная озвучка!
 

русский дубляж русской озвучки ))))) ну ошибся человек
 

Короче тут "ЗАКАДРОВЫЙ МНОГОГОЛОСЫЙ" перевод!Как прикрутить дубляж?
 

Спасибо!!
 

KrJuMaN
http://torrents3d.ru/viewtopic.php?t=2036 инструкция
 

поправте поскорее - перевод не "Профессиональный (полное дублирование)", а закадровый!
придется качать заново с нормальным звуком
 

да перевод разочаровал :-(
 

kak opredeljatj kartinka budet na vesj ekran ili s 4jornimi polosami sverhu,snizu
 

 

Топик был перенесен из форума Мультфильмы в форум Архив

Zagruzin
 

привет тридэшники, у мультика оказывается есть возрастное ограничение, хотел с детьми посмотреть но не тут то было...
 

классный мульт
 
amberg123789@mail.ru Профиль 23-Июн-2013 11:12

Страница 1 из 2

1, 2  След.